<?xml version="1.0" standalone="no"?>
<!DOCTYPE svg PUBLIC "-//W3C//DTD SVG 1.1//EN" "http://www.w3.org/Graphics/SVG/1.1/DTD/svg11.dtd" >
<svg xmlns="http://www.w3.org/2000/svg">
<metadata>Generated by IcoMoon</metadata>
<defs>
<font id="icomoon" horiz-adv-x="1024">
<font-face units-per-em="1024" ascent="960" descent="-64" />
<missing-glyph horiz-adv-x="1024" />
<glyph unicode="&#x20;" horiz-adv-x="512" d="" />
<glyph unicode="&#xe900;" glyph-name="d" d="M266.667 432v21.333c0 8.533-7.467 16-16 16h-128c-8.533 0-16-7.467-16-16v-21.333c0-8.533 7.467-16 16-16h128c8.533 0 16 7.467 16 16zM496 693.333h21.333c8.533 0 16 7.467 16 16v128c0 8.533-7.467 16-16 16h-21.333c-8.533 0-16-7.467-16-16v-128c0-8.533 7.467-16 16-16zM327.467 285.867c-6.4 6.4-16 6.4-22.4 0l-90.667-90.667c-6.4-6.4-6.4-16 0-22.4l14.933-14.933c6.4-6.4 16-6.4 22.4 0l90.667 90.667c6.4 6.4 6.4 16 0 22.4l-14.933 14.933zM689.067 617.6c6.4-6.4 16-6.4 22.4 0l90.667 90.667c6.4 6.4 6.4 16 0 22.4l-14.933 14.933c-6.4 6.4-16 6.4-22.4 0l-90.667-90.667c-6.4-6.4-6.4-16 0-22.4l14.933-14.933zM901.333 469.333h-128c-8.533 0-16-7.467-16-16v-21.333c0-8.533 7.467-16 16-16h128c8.533 0 16 7.467 16 16v21.333c0 8.533-7.467 16-16 16zM517.333 202.667h-21.333c-8.533 0-16-7.467-16-16v-128c0-8.533 7.467-16 16-16h21.333c8.533 0 16 7.467 16 16v128c0 8.533-7.467 16-16 16zM711.467 278.4c-6.4 6.4-16 6.4-22.4 0l-14.933-14.933c-6.4-6.4-6.4-16 0-22.4l90.667-90.667c6.4-6.4 16-6.4 22.4 0l14.933 14.933c6.4 6.4 6.4 16 0 22.4l-90.667 90.667zM305.067 610.133c6.4-6.4 16-6.4 22.4 0l14.933 14.933c6.4 6.4 6.4 16 0 22.4l-90.667 90.667c-6.4 6.4-16 6.4-22.4 0l-14.933-14.933c-6.4-6.4-6.4-16 0-22.4l90.667-90.667zM512 650.667c-112 0-202.667-90.667-202.667-202.667s90.667-202.667 202.667-202.667 202.667 90.667 202.667 202.667-90.667 202.667-202.667 202.667zM512 295.467c-84.267 0-152.533 68.267-152.533 152.533s68.267 152.533 152.533 152.533 152.533-68.267 152.533-152.533-68.267-152.533-152.533-152.533z" />
<glyph unicode="&#xe901;" d="M706.133 416c42.667 0 77.867-28.8 81.067-66.133-17.067-3.2-28.8-11.733-24.533-33.067 6.4 4.267 13.867 8.533 22.4 10.667 0 0 0 0 0 0 2.133 1.067 3.2 1.067 5.333 2.133 0 0 1.067 0 1.067 0 5.333 1.067 11.733 2.133 18.133 2.133 36.267 0 65.067-26.667 65.067-58.667 0-30.933-26.667-56.533-59.733-58.667v0h-217.6c-36.267 5.333-64 38.4-64 76.8 0 41.6 33.067 75.733 73.6 76.8-4.267-14.933-3.2-29.867 13.867-36.267 0 10.667 3.2 22.4 7.467 34.133 0 0 0 0 0 0s0 1.067 0 1.067c2.133 5.333 4.267 9.6 7.467 13.867 13.867 20.267 40.533 35.2 70.4 35.2zM706.133 458.667c-40.533 0-77.867-18.133-101.333-49.067-64-2.133-114.133-54.4-114.133-119.467 0-55.467 36.267-102.4 88.533-116.267 5.333-2.133 11.733-4.267 18.133-4.267h218.667c3.2 0 6.4 0 9.6 1.067 53.333 7.467 92.8 49.067 92.8 100.267 0 50.133-39.467 92.8-91.733 100.267-14.933 51.2-62.933 87.467-120.533 87.467v0z" />
<glyph unicode="&#xe902;" d="M496 693.333h21.333c8.533 0 16 7.467 16 16v128c0 8.533-7.467 16-16 16h-21.333c-8.533 0-16-7.467-16-16v-128c0-8.533 7.467-16 16-16z" />
<glyph unicode="&#xe903;" d="M848 416h53.333c8.533 0 16 7.467 16 16v21.333c0 8.533-7.467 16-16 16h-104.533c21.333-13.867 38.4-32 51.2-53.333z" />
<glyph unicode="&#xe904;" d="M305.067 610.133c6.4-6.4 16-6.4 22.4 0l14.933 14.933c6.4 6.4 6.4 16 0 22.4l-90.667 90.667c-6.4 6.4-16 6.4-22.4 0l-14.933-14.933c-6.4-6.4-6.4-16 0-22.4l90.667-90.667z" />
<glyph unicode="&#xe905;" d="M689.067 617.6c6.4-6.4 16-6.4 22.4 0l90.667 90.667c6.4 6.4 6.4 16 0 22.4l-14.933 14.933c-6.4 6.4-16 6.4-22.4 0l-90.667-90.667c-6.4-6.4-6.4-16 0-22.4l14.933-14.933z" />
<glyph unicode="&#xe906;" d="M453.333 290.133c0 5.333 0 11.733 1.067 17.067-55.467 22.4-93.867 76.8-93.867 140.8 0 84.267 68.267 152.533 152.533 152.533 69.333 0 128-46.933 146.133-110.933 14.933 4.267 30.933 6.4 48 6.4 1.067 0 2.133 0 3.2 0-23.467 88.533-103.467 154.667-198.4 154.667-112 0-202.667-90.667-202.667-202.667 0-92.8 62.933-171.733 148.267-195.2-3.2 11.733-4.267 24.533-4.267 37.333z" />
<glyph unicode="&#xe907;" d="M484.267 197.333c-2.133-3.2-4.267-6.4-4.267-10.667v-128c0-8.533 7.467-16 16-16h21.333c8.533 0 16 7.467 16 16v94.933c-19.2 10.667-36.267 25.6-49.067 43.733z" />
<glyph unicode="&#xe908;" d="M327.467 285.867c-6.4 6.4-16 6.4-22.4 0l-90.667-90.667c-6.4-6.4-6.4-16 0-22.4l14.933-14.933c6.4-6.4 16-6.4 22.4 0l90.667 90.667c6.4 6.4 6.4 16 0 22.4l-14.933 14.933z" />
<glyph unicode="&#xe909;" d="M266.667 432v21.333c0 8.533-7.467 16-16 16h-128c-8.533 0-16-7.467-16-16v-21.333c0-8.533 7.467-16 16-16h128c8.533 0 16 7.467 16 16z" />
<glyph unicode="&#xe90a;" d="M706.133 341.333c42.667 0 77.867-28.8 81.067-66.133-17.067-3.2-28.8-11.733-24.533-33.067 6.4 4.267 13.867 8.533 22.4 10.667 0 0 0 0 0 0 2.133 1.067 3.2 1.067 5.333 2.133 0 0 1.067 0 1.067 0 5.333 1.067 11.733 2.133 18.133 2.133 36.267 0 65.067-26.667 65.067-58.667 0-30.933-26.667-56.533-59.733-58.667v0h-217.6c-36.267 5.333-64 38.4-64 76.8 0 41.6 33.067 75.733 73.6 76.8-4.267-14.933-3.2-29.867 13.867-36.267 0 10.667 3.2 22.4 7.467 34.133 0 0 0 0 0 0s0 1.067 0 1.067c2.133 5.333 4.267 9.6 7.467 13.867 13.867 20.267 40.533 35.2 70.4 35.2zM706.133 384c-40.533 0-77.867-18.133-101.333-49.067-64-2.133-114.133-54.4-114.133-119.467 0-55.467 36.267-102.4 88.533-115.2 5.333-2.133 11.733-4.267 18.133-4.267h218.667c3.2 0 6.4 0 9.6 1.067 53.333 7.467 92.8 49.067 92.8 100.267 0 50.133-39.467 92.8-91.733 100.267-14.933 50.133-62.933 86.4-120.533 86.4v0z" />
<glyph unicode="&#xe90b;" d="M262.4 480c27.733 0 51.2-20.267 53.333-45.867-11.733-2.133-19.2-8.533-16-22.4 4.267 3.2 9.6 5.333 14.933 7.467 0 0 0 0 0 0 1.067 0 2.133 1.067 3.2 1.067 0 0 0 0 1.067 0 3.2 1.067 7.467 1.067 11.733 1.067 23.467 0 42.667-18.133 42.667-40.533 0-21.333-17.067-38.4-39.467-40.533v0h-142.933c-23.467 4.267-41.6 26.667-41.6 52.267 0 28.8 21.333 52.267 48 52.267-3.2-10.667-2.133-20.267 9.6-24.533 0 7.467 2.133 14.933 5.333 23.467 0 0 0 0 0 0s0 0 0 1.067c1.067 3.2 3.2 6.4 4.267 9.6 9.6 16 26.667 25.6 45.867 25.6zM262.4 522.667c-28.8 0-56.533-12.8-74.667-34.133-45.867-5.333-81.067-45.867-81.067-94.933 0-43.733 27.733-80 67.2-91.733 5.333-2.133 10.667-3.2 17.067-3.2h142.933c3.2 0 6.4 0 9.6 1.067 41.6 6.4 72.533 40.533 72.533 82.133 0 38.4-26.667 70.4-62.933 80-12.8 35.2-49.067 60.8-90.667 60.8v0z" />
<glyph unicode="&#xe90c;" d="M757.333 453.333v-21.333c0-8.533 7.467-16 16-16h128c8.533 0 16 7.467 16 16v21.333c0 8.533-7.467 16-16 16h-128c-8.533 0-16-7.467-16-16z" />
<glyph unicode="&#xe90d;" d="M689.067 617.6c6.4-6.4 16-6.4 22.4 0l90.667 90.667c6.4 6.4 6.4 16 0 22.4l-14.933 14.933c-6.4 6.4-16 6.4-22.4 0l-90.667-90.667c-6.4-6.4-6.4-16 0-22.4l14.933-14.933z" />
<glyph unicode="&#xe90e;" d="M472.533 301.867c-11.733 3.2-22.4 7.467-33.067 12.8-9.6-14.933-21.333-27.733-36.267-37.333 14.933-9.6 32-18.133 50.133-23.467 3.2 17.067 9.6 33.067 19.2 48z" />
<glyph unicode="&#xe90f;" d="M496 693.333h21.333c8.533 0 16 7.467 16 16v128c0 8.533-7.467 16-16 16h-21.333c-8.533 0-16-7.467-16-16v-128c0-8.533 7.467-16 16-16z" />
<glyph unicode="&#xe910;" d="M373.333 510.933c23.467 52.267 76.8 88.533 138.667 88.533 84.267 0 152.533-68.267 152.533-152.533 0-9.6-1.067-18.133-2.133-26.667 13.867 3.2 28.8 5.333 44.8 5.333 2.133 0 5.333 0 7.467 0 1.067 7.467 1.067 13.867 1.067 21.333 0 112-90.667 202.667-202.667 202.667-76.8 0-142.933-42.667-177.067-104.533 13.867-8.533 26.667-20.267 37.333-34.133z" />
<glyph unicode="&#xe911;" d="M305.067 610.133c6.4-6.4 16-6.4 22.4 0l14.933 14.933c6.4 6.4 6.4 16 0 22.4l-90.667 90.667c-6.4 6.4-16 6.4-22.4 0l-14.933-14.933c-6.4-6.4-6.4-16 0-22.4l90.667-90.667z" />
<glyph unicode="&#xe912;" d="M706.133 341.333c42.667 0 77.867-28.8 81.067-66.133-17.067-3.2-28.8-11.733-24.533-33.067 6.4 4.267 13.867 8.533 22.4 10.667 0 0 0 0 0 0 2.133 1.067 3.2 1.067 5.333 2.133 0 0 1.067 0 1.067 0 5.333 1.067 11.733 2.133 18.133 2.133 36.267 0 65.067-26.667 65.067-58.667 0-30.933-26.667-56.533-59.733-58.667v0h-217.6c-36.267 5.333-64 38.4-64 76.8 0 41.6 33.067 75.733 73.6 76.8-4.267-14.933-3.2-29.867 13.867-36.267 0 10.667 3.2 22.4 7.467 34.133 0 0 0 0 0 0s0 1.067 0 1.067c2.133 5.333 4.267 9.6 7.467 13.867 13.867 20.267 40.533 35.2 70.4 35.2zM706.133 384c-40.533 0-77.867-18.133-101.333-49.067-64-2.133-114.133-54.4-114.133-119.467 0-55.467 36.267-102.4 88.533-115.2 5.333-2.133 11.733-4.267 18.133-4.267h218.667c3.2 0 6.4 0 9.6 1.067 53.333 7.467 92.8 49.067 92.8 100.267 0 50.133-39.467 92.8-91.733 100.267-14.933 50.133-62.933 86.4-120.533 86.4v0z" />
<glyph unicode="&#xe913;" d="M262.4 480c27.733 0 51.2-20.267 53.333-45.867-11.733-2.133-19.2-8.533-16-22.4 4.267 3.2 9.6 5.333 14.933 7.467 0 0 0 0 0 0 1.067 0 2.133 1.067 3.2 1.067 0 0 0 0 1.067 0 3.2 1.067 7.467 1.067 11.733 1.067 23.467 0 42.667-18.133 42.667-40.533 0-21.333-17.067-38.4-39.467-40.533v0h-142.933c-23.467 4.267-41.6 26.667-41.6 52.267 0 28.8 21.333 52.267 48 52.267-3.2-10.667-2.133-20.267 9.6-24.533 0 7.467 2.133 14.933 5.333 23.467 0 0 0 0 0 0s0 0 0 1.067c1.067 3.2 3.2 6.4 4.267 9.6 9.6 16 26.667 25.6 45.867 25.6zM262.4 522.667c-28.8 0-56.533-12.8-74.667-34.133-45.867-5.333-81.067-45.867-81.067-94.933 0-43.733 27.733-80 67.2-91.733 5.333-2.133 10.667-3.2 17.067-3.2h142.933c3.2 0 6.4 0 9.6 1.067 41.6 6.4 72.533 40.533 72.533 82.133 0 38.4-26.667 70.4-62.933 80-12.8 35.2-49.067 60.8-90.667 60.8v0z" />
<glyph unicode="&#xe914;" d="M678.4 640c20.267 0 36.267-13.867 38.4-32-8.533-1.067-13.867-5.333-11.733-16 3.2 2.133 6.4 4.267 10.667 5.333 0 0 0 0 0 0 1.067 0 2.133 1.067 2.133 1.067s0 0 0 0c2.133 1.067 5.333 1.067 8.533 1.067 17.067 0 30.933-12.8 30.933-27.733s-12.8-26.667-27.733-27.733v0h-102.4c-17.067 3.2-29.867 18.133-29.867 36.267 0 20.267 14.933 36.267 34.133 36.267-2.133-7.467-1.067-13.867 6.4-17.067 0 5.333 1.067 10.667 3.2 16v0c0 0 0 0 0 1.067 1.067 2.133 2.133 4.267 3.2 6.4 7.467 10.667 20.267 17.067 34.133 17.067zM678.4 682.667c-22.4 0-43.733-8.533-58.667-24.533-37.333-6.4-65.067-38.4-65.067-77.867 0-36.267 23.467-67.2 56.533-75.733 5.333-2.133 9.6-3.2 16-3.2h102.4c3.2 0 5.333 0 8.533 1.067 36.267 5.333 61.867 34.133 61.867 69.333 0 30.933-20.267 56.533-48 66.133-12.8 26.667-41.6 44.8-73.6 44.8v0z" />
<glyph unicode="&#xe915;" d="M761.6 464c-2.133-3.2-4.267-6.4-4.267-10.667v-21.333c0-8.533 7.467-16 16-16h128c8.533 0 16 7.467 16 16v21.333c0 8.533-7.467 16-16 16h-124.8c-5.333-2.133-9.6-4.267-14.933-5.333z" />
<glyph unicode="&#xe916;" d="M713.6 458.667h-51.2c0-3.2 1.067-7.467 1.067-10.667 0-9.6-1.067-18.133-2.133-26.667 13.867 3.2 28.8 5.333 44.8 5.333 2.133 0 5.333 0 7.467 0 1.067 7.467 1.067 13.867 1.067 21.333 0 3.2 0 7.467-1.067 10.667z" />
<glyph unicode="&#xe917;" d="M472.533 301.867c-11.733 3.2-22.4 7.467-33.067 12.8-9.6-14.933-21.333-27.733-36.267-37.333 14.933-9.6 32-18.133 50.133-23.467 3.2 17.067 9.6 33.067 19.2 48z" />
<glyph unicode="&#xe918;" d="M305.067 610.133c6.4-6.4 16-6.4 22.4 0l14.933 14.933c6.4 6.4 6.4 16 0 22.4l-90.667 90.667c-6.4 6.4-16 6.4-22.4 0l-14.933-14.933c-6.4-6.4-6.4-16 0-22.4l90.667-90.667z" />
<glyph unicode="&#xe919;" d="M496 693.333h21.333c8.533 0 16 7.467 16 16v128c0 8.533-7.467 16-16 16h-21.333c-8.533 0-16-7.467-16-16v-128c0-8.533 7.467-16 16-16z" />
<glyph unicode="&#xe91a;" d="M373.333 510.933c23.467 52.267 76.8 88.533 138.667 88.533 0 0 1.067 0 1.067 0 3.2 18.133 9.6 35.2 19.2 50.133-6.4 1.067-12.8 1.067-20.267 1.067-76.8 0-142.933-42.667-177.067-104.533 14.933-9.6 27.733-21.333 38.4-35.2z" />
<glyph unicode="&#xe91b;" d="M208 320h629.333c14.933 0 26.667-9.6 26.667-21.333s-11.733-21.333-26.667-21.333h-629.333c-14.933 0-26.667 9.6-26.667 21.333s11.733 21.333 26.667 21.333zM208 234.667h629.333c14.933 0 26.667-9.6 26.667-21.333s-11.733-21.333-26.667-21.333h-629.333c-14.933 0-26.667 9.6-26.667 21.333s11.733 21.333 26.667 21.333zM208 149.333h629.333c14.933 0 26.667-9.6 26.667-21.333s-11.733-21.333-26.667-21.333h-629.333c-14.933 0-26.667 9.6-26.667 21.333s11.733 21.333 26.667 21.333z" />
<glyph unicode="&#xe91c;" d="M689.067 585.6c6.4-6.4 16-6.4 22.4 0l90.667 90.667c6.4 6.4 6.4 16 0 22.4l-14.933 14.933c-6.4 6.4-16 6.4-22.4 0l-90.667-90.667c-6.4-6.4-6.4-16 0-22.4l14.933-14.933z" />
<glyph unicode="&#xe91d;" d="M757.333 421.333v-21.333c0-8.533 7.467-16 16-16h128c8.533 0 16 7.467 16 16v21.333c0 8.533-7.467 16-16 16h-128c-8.533 0-16-7.467-16-16z" />
<glyph unicode="&#xe91e;" d="M496 661.333h21.333c8.533 0 16 7.467 16 16v128c0 8.533-7.467 16-16 16h-21.333c-8.533 0-16-7.467-16-16v-128c0-8.533 7.467-16 16-16z" />
<glyph unicode="&#xe91f;" d="M316.8 362.667h53.333c-6.4 17.067-9.6 34.133-9.6 53.333 0 84.267 68.267 152.533 152.533 152.533s151.467-68.267 151.467-152.533c0-19.2-3.2-36.267-9.6-53.333h53.333c4.267 17.067 7.467 35.2 7.467 53.333 0 112-90.667 202.667-202.667 202.667s-202.667-90.667-202.667-202.667c-1.067-18.133 2.133-36.267 6.4-53.333z" />
<glyph unicode="&#xe920;" d="M122.667 384h128c8.533 0 16 7.467 16 16v21.333c0 8.533-7.467 16-16 16h-128c-8.533 0-16-7.467-16-16v-21.333c0-8.533 7.467-16 16-16z" />
<glyph unicode="&#xe921;" d="M305.067 578.133c6.4-6.4 16-6.4 22.4 0l14.933 14.933c6.4 6.4 6.4 16 0 22.4l-90.667 90.667c-6.4 6.4-16 6.4-22.4 0l-14.933-14.933c-6.4-6.4-6.4-16 0-22.4l90.667-90.667z" />
<glyph unicode="&#xe922;" d="M599.467 405.333c42.667 0 77.867-28.8 81.067-66.133-17.067-3.2-28.8-11.733-24.533-33.067 6.4 4.267 13.867 8.533 22.4 10.667 0 0 0 0 0 0 2.133 1.067 3.2 1.067 5.333 2.133 0 0 1.067 0 1.067 0 5.333 1.067 11.733 2.133 18.133 2.133 36.267 0 65.067-26.667 65.067-58.667 0-30.933-26.667-56.533-59.733-58.667v0h-217.6c-36.267 5.333-64 38.4-64 76.8 0 41.6 33.067 75.733 73.6 76.8-4.267-14.933-3.2-29.867 13.867-36.267 0 10.667 3.2 22.4 7.467 34.133 0 0 0 0 0 0s0 1.067 0 1.067c2.133 5.333 4.267 9.6 7.467 13.867 13.867 20.267 40.533 35.2 70.4 35.2zM599.467 448c-40.533 0-77.867-18.133-101.333-49.067-64-2.133-114.133-54.4-114.133-119.467 0-55.467 36.267-102.4 88.533-116.267 5.333-2.133 11.733-4.267 18.133-4.267h218.667c3.2 0 6.4 0 9.6 1.067 53.333 7.467 92.8 49.067 92.8 100.267 0 50.133-39.467 92.8-91.733 100.267-14.933 51.2-62.933 87.467-120.533 87.467v0z" />
<glyph unicode="&#xe923;" d="M848 499.2c-12.8 26.667-40.533 44.8-73.6 44.8-22.4 0-43.733-8.533-58.667-24.533-25.6-4.267-46.933-21.333-57.6-44.8 13.867-5.333 26.667-11.733 38.4-20.267 5.333 12.8 17.067 22.4 32 23.467-2.133-7.467-1.067-13.867 6.4-17.067 0 5.333 1.067 10.667 3.2 16v0c0 0 0 0 0 1.067 1.067 2.133 2.133 4.267 3.2 6.4 6.4 10.667 19.2 17.067 33.067 17.067 20.267 0 36.267-13.867 38.4-32-8.533-1.067-13.867-5.333-11.733-16 3.2 2.133 6.4 4.267 10.667 5.333 0 0 0 0 0 0 1.067 0 2.133 1.067 2.133 1.067s0 0 0 0c2.133 1.067 5.333 1.067 8.533 1.067 17.067 0 30.933-12.8 30.933-27.733s-12.8-26.667-27.733-27.733v0h-84.267c2.133-4.267 4.267-7.467 6.4-11.733 20.267-6.4 38.4-17.067 54.4-30.933h23.467c3.2 0 5.333 0 8.533 1.067 36.267 5.333 61.867 34.133 61.867 69.333 0 30.933-20.267 56.533-48 66.133z" />
<glyph unicode="&#xe924;" d="M341.333 279.467c0 6.4 0 12.8 1.067 19.2h-130.133c-23.467 4.267-41.6 26.667-41.6 53.333 0 28.8 21.333 52.267 48 52.267-3.2-10.667-2.133-20.267 9.6-24.533 0 7.467 2.133 16 5.333 23.467 0 0 0 0 0 0s0 1.067 0 1.067c1.067 3.2 3.2 6.4 4.267 9.6 9.6 14.933 26.667 24.533 45.867 24.533 27.733 0 51.2-20.267 53.333-45.867-11.733-2.133-19.2-8.533-16-22.4 4.267 3.2 9.6 5.333 14.933 7.467 0 0 0 0 0 0 1.067 0 2.133 1.067 3.2 1.067 0 0 0 0 1.067 0 3.2 1.067 7.467 1.067 11.733 1.067 7.467 0 13.867-2.133 19.2-4.267 8.533 11.733 18.133 22.4 29.867 32-8.533 5.333-17.067 9.6-26.667 12.8-12.8 36.267-49.067 60.8-90.667 60.8-28.8 0-56.533-12.8-74.667-34.133-45.867-5.333-81.067-45.867-81.067-94.933 0-46.933 33.067-87.467 76.8-94.933 2.133 0 4.267-1.067 7.467-1.067 1.067 0 2.133 0 3.2 0h128c-1.067 7.467-2.133 16-2.133 23.467z" />
<glyph unicode="&#xe925;" d="M386.133 478.933c27.733 40.533 73.6 67.2 125.867 67.2 43.733 0 82.133-18.133 109.867-48 8.533 16 19.2 28.8 33.067 39.467-36.267 37.333-87.467 59.733-142.933 59.733-69.333 0-131.2-35.2-167.467-88.533 16-7.467 29.867-17.067 41.6-29.867z" />
<glyph unicode="&#xe926;" d="M496 640h21.333c8.533 0 16 7.467 16 16v128c0 8.533-7.467 16-16 16h-21.333c-8.533 0-16-7.467-16-16v-128c0-8.533 7.467-16 16-16z" />
<glyph unicode="&#xe927;" d="M305.067 556.8c6.4-6.4 16-6.4 22.4 0l14.933 14.933c6.4 6.4 6.4 16 0 22.4l-90.667 90.667c-6.4 6.4-16 6.4-22.4 0l-14.933-14.933c-6.4-6.4-6.4-16 0-22.4l90.667-90.667z" />
<glyph unicode="&#xe928;" d="M689.067 564.267c6.4-6.4 16-6.4 22.4 0l90.667 90.667c6.4 6.4 6.4 16 0 22.4l-14.933 14.933c-6.4 6.4-16 6.4-22.4 0l-90.667-90.667c-6.4-6.4-6.4-16 0-22.4l14.933-14.933z" />
<glyph unicode="&#xe929;" glyph-name="d35" d="M516.267 650.667c87.467 0 160-58.667 167.467-133.333-36.267-6.4-59.733-24.533-50.133-66.133 13.867 8.533 29.867 16 45.867 21.333 0 0 0 0 0 0 3.2 1.067 7.467 2.133 10.667 3.2 1.067 0 1.067 0 2.133 0 11.733 3.2 23.467 4.267 36.267 4.267 74.667 0 135.467-52.267 135.467-117.333 0-61.867-54.4-112-122.667-117.333v0h-450.133c-74.667 11.733-131.2 76.8-131.2 153.6 0 83.2 67.2 151.467 151.467 153.6-9.6-29.867-6.4-58.667 28.8-72.533-1.067 21.333 6.4 44.8 16 67.2 0 0 0 0 0 0 0 1.067 1.067 1.067 1.067 2.133 4.267 9.6 9.6 19.2 14.933 28.8 28.8 43.733 82.133 72.533 144 72.533zM516.267 704c-77.867 0-148.267-35.2-188.8-94.933 0-1.067-1.067-1.067-1.067-2.133 0 0-1.067-1.067-1.067-2.133-4.267 1.067-9.6 2.133-13.867 2.133 0 0-1.067 0-1.067 0-114.133-4.267-203.733-94.933-203.733-208 0-97.067 66.133-179.2 160-201.6 7.467-4.267 16-6.4 24.533-6.4h450.133c4.267 0 8.533 1.067 12.8 1.067 93.867 12.8 163.2 84.267 163.2 170.667 0 92.8-81.067 167.467-182.4 170.667-16 98.133-107.733 170.667-218.667 170.667v0z" />
<glyph unicode="&#xe92a;" glyph-name="d34" d="M658.133 490.667c54.4 0 99.2-38.4 103.467-87.467-22.4-4.267-37.333-16-30.933-43.733 8.533 6.4 18.133 10.667 28.8 13.867 0 0 0 0 0 0 2.133 1.067 4.267 1.067 6.4 2.133 0 0 1.067 0 1.067 0 7.467 2.133 14.933 3.2 22.4 3.2 45.867 0 84.267-34.133 84.267-77.867 0-40.533-33.067-73.6-76.8-77.867v0h-278.4c-45.867 7.467-81.067 51.2-81.067 101.333 0 55.467 41.6 99.2 93.867 101.333-6.4-20.267-4.267-38.4 18.133-48 0 13.867 3.2 29.867 9.6 44.8 0 0 0 0 0 0s0 1.067 1.067 1.067c3.2 6.4 6.4 12.8 9.6 18.133 17.067 29.867 50.133 49.067 88.533 49.067zM658.133 533.333c-51.2 0-97.067-23.467-123.733-64-1.067 0-2.133 0-3.2 0 0 0-1.067 0-1.067 0-75.733-2.133-135.467-66.133-135.467-144 0-66.133 43.733-123.733 104.533-139.733 5.333-3.2 12.8-4.267 19.2-4.267h279.467c3.2 0 6.4 0 9.6 1.067 64 8.533 109.867 58.667 109.867 118.4 0 61.867-50.133 114.133-114.133 119.467-13.867 65.067-72.533 113.067-145.067 113.067v0zM390.4 631.467c-4.267-12.8-2.133-24.533 11.733-30.933 0 8.533 2.133 19.2 6.4 28.8 0 0 0 0 0 0s0 1.067 0 1.067c2.133 4.267 3.2 8.533 5.333 11.733 11.733 18.133 33.067 29.867 56.533 29.867 34.133 0 62.933-24.533 66.133-56.533-13.867-3.2-23.467-10.667-19.2-27.733 5.333 4.267 11.733 6.4 18.133 8.533 0 0 0 0 0 0 1.067 0 3.2 1.067 4.267 1.067 0 0 0 0 1.067 0 4.267 1.067 9.6 2.133 13.867 2.133 24.533 0 45.867-16 51.2-37.333 13.867 4.267 27.733 6.4 42.667 7.467-7.467 35.2-36.267 62.933-73.6 70.4-13.867 43.733-55.467 73.6-104.533 73.6-34.133 0-66.133-14.933-86.4-41.6-54.4-4.267-96-50.133-96-106.667 0-6.4 0-11.733 1.067-17.067 3.2 0 7.467 0 10.667 0 11.733 0 22.4-1.067 33.067-3.2-2.133 6.4-3.2 12.8-3.2 20.267 1.067 36.267 27.733 65.067 60.8 66.133zM356.267 288h-151.467c-32 5.333-55.467 34.133-55.467 69.333 0 37.333 28.8 67.2 64 69.333-4.267-13.867-3.2-26.667 12.8-33.067 0 9.6 2.133 20.267 6.4 29.867 0 0 0 0 0 0s0 1.067 0 1.067c2.133 4.267 4.267 8.533 6.4 12.8 12.8 19.2 35.2 32 61.867 32 37.333 0 67.2-26.667 70.4-59.733 2.133 6.4 12.8 24.533 29.867 43.733-19.2 35.2-56.533 58.667-101.333 58.667-36.267 0-70.4-16-91.733-43.733-56.533-3.2-101.333-52.267-101.333-110.933 0-51.2 33.067-94.933 80-107.733 5.333-2.133 11.733-4.267 18.133-4.267h164.267c-5.333 13.867-10.667 27.733-12.8 42.667z" />
<glyph unicode="&#xe92b;" glyph-name="d31" d="M256 362.667c-33.067 27.733-53.333 70.4-53.333 118.4 0 81.067 59.733 147.2 135.467 149.333-8.533-28.8-5.333-57.6 25.6-70.4-1.067 20.267 5.333 43.733 13.867 66.133 0 0 0 0 0 0 0 1.067 1.067 1.067 1.067 2.133 4.267 9.6 8.533 19.2 12.8 27.733 25.6 41.6 74.667 70.4 129.067 70.4 78.933 0 142.933-56.533 149.333-130.133-32-6.4-53.333-23.467-44.8-65.067 11.733 8.533 26.667 16 41.6 21.333 0 0 0 0 0 0 3.2 1.067 6.4 2.133 9.6 3.2 1.067 0 1.067 0 2.133 0 10.667 3.2 21.333 4.267 33.067 4.267 67.2 0 120.533-51.2 120.533-114.133 0-32-13.867-61.867-37.333-82.133h68.267c13.867 24.533 22.4 52.267 22.4 82.133 0 88.533-72.533 162.133-163.2 167.467-14.933 96-99.2 166.4-200.533 166.4-71.467 0-137.6-36.267-174.933-94.933 0 0 0 0 0 0-3.2 0-5.333 1.067-8.533 1.067-1.067 0-1.067 0-2.133 0-104.533-3.2-186.667-92.8-186.667-202.667 0-43.733 12.8-84.267 35.2-118.4h71.467zM208 320h629.333c14.933 0 26.667-9.6 26.667-21.333s-11.733-21.333-26.667-21.333h-629.333c-14.933 0-26.667 9.6-26.667 21.333s11.733 21.333 26.667 21.333zM208 234.667h629.333c14.933 0 26.667-9.6 26.667-21.333s-11.733-21.333-26.667-21.333h-629.333c-14.933 0-26.667 9.6-26.667 21.333s11.733 21.333 26.667 21.333zM208 149.333h629.333c14.933 0 26.667-9.6 26.667-21.333s-11.733-21.333-26.667-21.333h-629.333c-14.933 0-26.667 9.6-26.667 21.333s11.733 21.333 26.667 21.333z" />
<glyph unicode="&#xe92c;" glyph-name="d30" d="M734.933 554.667c-16 98.133-107.733 170.667-218.667 170.667-77.867 0-148.267-35.2-188.8-94.933 0-1.067-1.067-1.067-1.067-2.133 0 0-1.067-1.067-1.067-1.067-4.267 1.067-9.6 2.133-13.867 2.133 0 0-1.067 0-1.067 0-114.133-5.333-203.733-96-203.733-209.067 0-97.067 66.133-179.2 160-201.6 7.467-4.267 16-6.4 24.533-6.4h8.533c-1.067 9.6 0 19.2 2.133 28.8 2.133 7.467 5.333 16 10.667 24.533h-21.333c-74.667 11.733-131.2 76.8-131.2 153.6 0 83.2 67.2 151.467 151.467 153.6-9.6-29.867-6.4-58.667 28.8-72.533-1.067 21.333 6.4 44.8 16 67.2 0 0 0 0 0 0 0 1.067 1.067 1.067 1.067 2.133 4.267 9.6 9.6 19.2 14.933 28.8 28.8 42.667 83.2 71.467 145.067 71.467 87.467 0 160-58.667 167.467-133.333-36.267-6.4-59.733-24.533-50.133-66.133 13.867 8.533 29.867 16 45.867 21.333 0 0 0 0 0 0 3.2 1.067 7.467 2.133 10.667 3.2 1.067 0 1.067 0 2.133 0 11.733 3.2 23.467 4.267 36.267 4.267 74.667 0 135.467-52.267 135.467-117.333 0-61.867-54.4-112-122.667-117.333h-64c6.4-21.333 8.533-39.467 8.533-53.333h55.467c4.267 0 8.533 1.067 12.8 1.067 92.8 13.867 162.133 85.333 162.133 171.733 0 92.8-81.067 168.533-182.4 170.667zM343.467 232.533c-5.333-21.333 6.4-43.733 26.667-50.133s40.533 7.467 45.867 28.8-17.067 88.533-17.067 88.533-50.133-45.867-55.467-67.2zM471.467 274.133c-4.267-18.133 5.333-36.267 23.467-40.533s35.2 5.333 40.533 23.467c4.267 18.133-14.933 73.6-14.933 73.6s-43.733-38.4-49.067-56.533zM579.2 225.067c-4.267-18.133 5.333-36.267 23.467-40.533 17.067-4.267 35.2 5.333 40.533 23.467 4.267 18.133-14.933 73.6-14.933 73.6s-43.733-38.4-49.067-56.533z" />
<glyph unicode="&#xe92d;" d="M293.333 259.2c0 3.2 0 5.333 0 7.467h-86.4c-33.067 5.333-57.6 36.267-57.6 72.533 0 39.467 29.867 71.467 66.133 72.533-4.267-13.867-3.2-27.733 12.8-34.133 0 9.6 2.133 21.333 6.4 32 0 0 0 0 0 0s0 1.067 0 1.067c2.133 4.267 4.267 9.6 6.4 13.867 12.8 20.267 36.267 34.133 64 34.133 30.933 0 56.533-17.067 68.267-42.667 11.733 8.533 24.533 14.933 38.4 20.267-18.133 38.4-58.667 65.067-105.6 65.067-37.333 0-72.533-17.067-93.867-45.867-58.667-3.2-104.533-53.333-104.533-115.2 0-56.533 40.533-105.6 92.8-115.2 2.133 0 4.267-1.067 7.467-1.067h89.6c-3.2 11.733-4.267 23.467-4.267 35.2z" />
<glyph unicode="&#xe92e;" d="M445.867 96c-5.333-22.4 6.4-45.867 26.667-51.2s40.533 7.467 45.867 29.867-17.067 90.667-17.067 90.667-50.133-46.933-55.467-69.333z" />
<glyph unicode="&#xe92f;" d="M576 139.733c-4.267-18.133 5.333-37.333 23.467-42.667s35.2 6.4 40.533 24.533c4.267 18.133-14.933 75.733-14.933 75.733s-44.8-39.467-49.067-57.6z" />
<glyph unicode="&#xe930;" d="M683.733 88.533c-4.267-18.133 5.333-37.333 23.467-42.667s35.2 6.4 40.533 24.533c4.267 18.133-14.933 75.733-14.933 75.733s-43.733-39.467-49.067-57.6z" />
<glyph unicode="&#xe931;" d="M755.2 358.4c-12.8 70.4-74.667 121.6-149.333 121.6-52.267 0-101.333-26.667-129.067-69.333-1.067 0-3.2 0-4.267 0 0 0-1.067 0-1.067 0-78.933-2.133-140.8-69.333-140.8-151.467 0-58.667 32-112 80-137.6 5.333 11.733 14.933 23.467 24.533 35.2-36.267 17.067-61.867 56.533-61.867 102.4 0 59.733 43.733 107.733 98.133 108.8-6.4-21.333-4.267-41.6 19.2-51.2 0 14.933 4.267 32 10.667 48 0 0 0 0 0 0 0 1.067 0 1.067 1.067 2.133 3.2 7.467 6.4 13.867 9.6 20.267 19.2 30.933 54.4 51.2 93.867 51.2 57.6 0 104.533-41.6 108.8-94.933-23.467-4.267-38.4-17.067-32-46.933 8.533 6.4 19.2 11.733 29.867 14.933 0 0 0 0 0 0 2.133 1.067 4.267 2.133 7.467 2.133 0 0 1.067 0 1.067 0 7.467 2.133 16 3.2 23.467 3.2 49.067 0 88.533-37.333 88.533-83.2 0-35.2-23.467-66.133-56.533-77.867 4.267-12.8 8.533-26.667 11.733-41.6 51.2 17.067 88.533 65.067 88.533 119.467-2.133 65.067-54.4 119.467-121.6 124.8z" />
<glyph unicode="&#xe932;" d="M378.667 520.533c25.6 46.933 75.733 78.933 133.333 78.933 60.8 0 113.067-36.267 137.6-87.467 22.4-5.333 42.667-13.867 61.867-26.667-18.133 94.933-100.267 165.333-199.467 165.333-80 0-149.333-46.933-182.4-114.133 18.133-2.133 34.133-7.467 49.067-16z" />
<glyph unicode="&#xe933;" d="M689.067 617.6c6.4-6.4 16-6.4 22.4 0l90.667 90.667c6.4 6.4 6.4 16 0 22.4l-14.933 14.933c-6.4 6.4-16 6.4-22.4 0l-90.667-90.667c-6.4-6.4-6.4-16 0-22.4l14.933-14.933z" />
<glyph unicode="&#xe934;" d="M305.067 610.133c6.4-6.4 16-6.4 22.4 0l14.933 14.933c6.4 6.4 6.4 16 0 22.4l-90.667 90.667c-6.4 6.4-16 6.4-22.4 0l-14.933-14.933c-6.4-6.4-6.4-16 0-22.4l90.667-90.667z" />
<glyph unicode="&#xe935;" d="M496 693.333h21.333c8.533 0 16 7.467 16 16v128c0 8.533-7.467 16-16 16h-21.333c-8.533 0-16-7.467-16-16v-128c0-8.533 7.467-16 16-16z" />
<glyph unicode="&#xe936;" d="M901.333 469.333h-128c-8.533 0-16-7.467-16-16v-9.6c6.4-8.533 12.8-18.133 17.067-27.733h126.933c8.533 0 16 7.467 16 16v21.333c0 8.533-7.467 16-16 16z" />
<glyph unicode="&#xe937;" d="M825.6 297.6c-13.867 50.133-61.867 86.4-120.533 86.4-40.533 0-77.867-18.133-101.333-49.067-64-2.133-114.133-54.4-114.133-119.467 0-35.2 14.933-68.267 40.533-89.6 3.2 10.667 10.667 23.467 22.4 38.4-11.733 13.867-19.2 32-19.2 52.267 0 41.6 33.067 75.733 73.6 76.8-4.267-14.933-3.2-29.867 13.867-36.267 0 10.667 3.2 22.4 7.467 34.133 0 0 0 0 0 0s0 1.067 0 1.067c2.133 5.333 4.267 9.6 7.467 13.867 13.867 21.333 40.533 36.267 70.4 36.267 42.667 0 77.867-28.8 81.067-66.133-17.067-3.2-28.8-11.733-24.533-33.067 6.4 4.267 13.867 8.533 22.4 10.667 0 0 0 0 0 0 2.133 1.067 3.2 1.067 5.333 2.133 0 0 1.067 0 1.067 0 5.333 1.067 11.733 2.133 18.133 2.133 36.267 0 65.067-26.667 65.067-58.667 0-20.267-11.733-38.4-29.867-49.067 5.333-19.2 7.467-33.067 8.533-43.733 38.4 16 64 51.2 64 92.8 0 49.067-39.467 90.667-91.733 98.133z" />
<glyph unicode="&#xe938;" d="M571.733 114.133c-4.267-17.067 5.333-34.133 21.333-38.4s32 5.333 36.267 22.4c4.267 17.067-12.8 69.333-12.8 69.333s-40.533-36.267-44.8-53.333z" />
<glyph unicode="&#xe939;" d="M674.133 148.267c-3.2-13.867 4.267-28.8 18.133-32 13.867-4.267 27.733 4.267 32 18.133 3.2 13.867-11.733 57.6-11.733 57.6s-35.2-29.867-38.4-43.733z" />
<glyph unicode="&#xe93a;" d="M759.467 109.867c-3.2-13.867 4.267-28.8 18.133-32 13.867-4.267 27.733 4.267 32 18.133s-11.733 57.6-11.733 57.6-34.133-29.867-38.4-43.733z" />
<glyph unicode="&#xe93b;" d="M262.4 480c27.733 0 51.2-20.267 53.333-45.867-11.733-2.133-19.2-8.533-16-22.4 4.267 3.2 9.6 5.333 14.933 7.467 0 0 0 0 0 0 1.067 0 2.133 1.067 3.2 1.067 0 0 0 0 1.067 0 3.2 1.067 7.467 1.067 11.733 1.067 23.467 0 42.667-18.133 42.667-40.533 0-21.333-17.067-38.4-39.467-40.533v0h-142.933c-23.467 4.267-41.6 26.667-41.6 52.267 0 28.8 21.333 52.267 48 52.267-3.2-10.667-2.133-20.267 9.6-24.533 0 7.467 2.133 14.933 5.333 23.467 0 0 0 0 0 0s0 0 0 1.067c1.067 3.2 3.2 6.4 4.267 9.6 9.6 16 26.667 25.6 45.867 25.6zM262.4 522.667c-28.8 0-56.533-12.8-74.667-34.133-45.867-5.333-81.067-45.867-81.067-94.933 0-43.733 27.733-80 67.2-91.733 5.333-2.133 10.667-3.2 17.067-3.2h142.933c3.2 0 6.4 0 9.6 1.067 41.6 6.4 72.533 40.533 72.533 82.133 0 38.4-26.667 70.4-62.933 80-12.8 35.2-49.067 60.8-90.667 60.8v0z" />
<glyph unicode="&#xe93c;" d="M496 693.333h21.333c8.533 0 16 7.467 16 16v128c0 8.533-7.467 16-16 16h-21.333c-8.533 0-16-7.467-16-16v-128c0-8.533 7.467-16 16-16z" />
<glyph unicode="&#xe93d;" d="M373.333 510.933c23.467 52.267 76.8 88.533 138.667 88.533 84.267 0 152.533-68.267 152.533-152.533 0-9.6-1.067-18.133-2.133-26.667 13.867 3.2 28.8 5.333 44.8 5.333 2.133 0 5.333 0 7.467 0 1.067 7.467 1.067 13.867 1.067 21.333 0 112-90.667 202.667-202.667 202.667-76.8 0-142.933-42.667-177.067-104.533 13.867-8.533 26.667-20.267 37.333-34.133z" />
<glyph unicode="&#xe93e;" d="M689.067 617.6c6.4-6.4 16-6.4 22.4 0l90.667 90.667c6.4 6.4 6.4 16 0 22.4l-14.933 14.933c-6.4 6.4-16 6.4-22.4 0l-90.667-90.667c-6.4-6.4-6.4-16 0-22.4l14.933-14.933z" />
<glyph unicode="&#xe93f;" d="M757.333 453.333v-21.333c0-8.533 7.467-16 16-16h128c8.533 0 16 7.467 16 16v21.333c0 8.533-7.467 16-16 16h-128c-8.533 0-16-7.467-16-16z" />
<glyph unicode="&#xe940;" d="M472.533 301.867c-11.733 3.2-22.4 7.467-33.067 12.8-9.6-14.933-21.333-27.733-36.267-37.333 14.933-9.6 32-18.133 50.133-23.467 3.2 17.067 9.6 33.067 19.2 48z" />
<glyph unicode="&#xe941;" d="M305.067 610.133c6.4-6.4 16-6.4 22.4 0l14.933 14.933c6.4 6.4 6.4 16 0 22.4l-90.667 90.667c-6.4 6.4-16 6.4-22.4 0l-14.933-14.933c-6.4-6.4-6.4-16 0-22.4l90.667-90.667z" />
<glyph unicode="&#xe942;" glyph-name="d22" d="M734.933 650.667c-16 98.133-107.733 170.667-218.667 170.667-77.867 0-148.267-35.2-188.8-94.933 0-1.067-1.067-1.067-1.067-2.133 0 0-1.067-1.067-1.067-1.067-4.267 1.067-9.6 2.133-13.867 2.133 0 0-1.067 0-1.067 0-114.133-5.333-203.733-96-203.733-209.067 0-97.067 66.133-179.2 160-201.6 7.467-4.267 16-6.4 24.533-6.4h41.6l-12.8 54.4h-28.8c-74.667 11.733-131.2 76.8-131.2 153.6 0 83.2 67.2 151.467 151.467 153.6-9.6-29.867-6.4-58.667 28.8-72.533-1.067 21.333 6.4 44.8 16 67.2 0 0 0 0 0 0 0 1.067 1.067 1.067 1.067 2.133 4.267 9.6 9.6 19.2 14.933 28.8 28.8 42.667 83.2 71.467 145.067 71.467 87.467 0 160-58.667 167.467-133.333-36.267-6.4-59.733-24.533-50.133-66.133 13.867 8.533 29.867 16 45.867 21.333 0 0 0 0 0 0 3.2 1.067 7.467 2.133 10.667 3.2 1.067 0 1.067 0 2.133 0 11.733 3.2 23.467 4.267 36.267 4.267 74.667 0 135.467-52.267 135.467-117.333 0-60.8-54.4-112-122.667-117.333h-25.6l8.533-53.333h17.067c4.267 0 8.533 1.067 12.8 1.067 92.8 12.8 162.133 84.267 162.133 170.667 0 92.8-81.067 168.533-182.4 170.667zM400 437.333l27.733-149.333 92.8 38.4 20.267-128 68.267 28.8 9.6-163.2-37.333 116.267-75.733-24.533-20.267 122.667-92.8-44.8-40.533 181.333 48 22.4zM598.4 394.667l18.133-102.4 62.933 25.6 13.867-87.467 46.933 20.267 6.4-112-25.6 80-51.2-17.067-13.867 84.267-62.933-30.933-27.733 123.733 33.067 16z" />
<glyph unicode="&#xe943;" d="M288 312.533c0 3.2 0 5.333 0 7.467h-81.067c-33.067 5.333-57.6 36.267-57.6 72.533 0 39.467 29.867 71.467 66.133 72.533-4.267-13.867-3.2-27.733 12.8-34.133 0 9.6 2.133 21.333 6.4 32 0 0 0 0 0 0s0 1.067 0 1.067c2.133 4.267 4.267 9.6 6.4 13.867 12.8 20.267 36.267 34.133 64 34.133 28.8 0 53.333-14.933 65.067-37.333 11.733 8.533 24.533 14.933 37.333 20.267-19.2 36.267-58.667 60.8-103.467 60.8-37.333 0-72.533-17.067-93.867-45.867-58.667-3.2-104.533-53.333-104.533-115.2 0-56.533 40.533-105.6 92.8-115.2 2.133 0 4.267-1.067 7.467-1.067h84.267c-1.067 10.667-2.133 22.4-2.133 34.133z" />
<glyph unicode="&#xe944;" d="M492.8 309.333l19.2-106.667 66.133 26.667 14.933-90.667 49.067 20.267 8.533-116.267-26.667 83.2-54.4-17.067-14.933 87.467-66.133-32-29.867 129.067 34.133 16z" />
<glyph unicode="&#xe945;" d="M755.2 411.733c-12.8 70.4-74.667 121.6-149.333 121.6-52.267 0-101.333-26.667-129.067-69.333-1.067 0-3.2 0-4.267 0 0 0-1.067 0-1.067 0-78.933-2.133-140.8-69.333-140.8-151.467 0-72.533 49.067-135.467 114.133-150.4l-10.667 49.067c-35.2 17.067-60.8 56.533-60.8 101.333 0 59.733 43.733 107.733 98.133 108.8-6.4-21.333-4.267-41.6 19.2-51.2 0 14.933 4.267 32 10.667 48 0 0 0 0 0 0 0 1.067 0 1.067 1.067 2.133 3.2 7.467 6.4 13.867 9.6 20.267 19.2 30.933 54.4 51.2 93.867 51.2 57.6 0 104.533-41.6 108.8-94.933-23.467-4.267-38.4-17.067-32-46.933 8.533 6.4 19.2 11.733 29.867 14.933 0 0 0 0 0 0 2.133 1.067 4.267 2.133 7.467 2.133 0 0 1.067 0 1.067 0 7.467 2.133 16 3.2 23.467 3.2 49.067 0 88.533-37.333 88.533-83.2 0-36.267-24.533-68.267-58.667-78.933l3.2-43.733c56.533 13.867 99.2 64 99.2 122.667-2.133 65.067-54.4 119.467-121.6 124.8z" />
<glyph unicode="&#xe946;" d="M643.2 272l11.733-65.067 39.467 16 8.533-54.4 28.8 12.8 4.267-70.4-16 50.133-32-10.667-8.533 53.333-39.467-19.2-17.067 77.867 20.267 9.6z" />
<glyph unicode="&#xe947;" d="M409.6 560c26.667 24.533 62.933 39.467 102.4 39.467 29.867 0 58.667-8.533 82.133-24.533 3.2 0 7.467 0 10.667 0 26.667 0 51.2-5.333 74.667-13.867-36.267 53.333-98.133 88.533-167.467 88.533-58.667 0-110.933-24.533-147.2-64 16-5.333 30.933-14.933 44.8-25.6z" />
<glyph unicode="&#xe948;" d="M496 693.333h21.333c8.533 0 16 7.467 16 16v128c0 8.533-7.467 16-16 16h-21.333c-8.533 0-16-7.467-16-16v-128c0-8.533 7.467-16 16-16z" />
<glyph unicode="&#xe949;" d="M689.067 617.6c6.4-6.4 16-6.4 22.4 0l90.667 90.667c6.4 6.4 6.4 16 0 22.4l-14.933 14.933c-6.4 6.4-16 6.4-22.4 0l-90.667-90.667c-6.4-6.4-6.4-16 0-22.4l14.933-14.933z" />
<glyph unicode="&#xe94a;" d="M901.333 469.333h-120.533c3.2-6.4 6.4-12.8 8.533-20.267 24.533-6.4 45.867-18.133 65.067-33.067h46.933c8.533 0 16 7.467 16 16v21.333c0 8.533-7.467 16-16 16z" />
<glyph unicode="&#xe94b;" d="M305.067 610.133c6.4-6.4 16-6.4 22.4 0l14.933 14.933c6.4 6.4 6.4 16 0 22.4l-90.667 90.667c-6.4 6.4-16 6.4-22.4 0l-14.933-14.933c-6.4-6.4-6.4-16 0-22.4l90.667-90.667z" />
<glyph unicode="&#xe94c;" d="M627.2 277.333l17.067-93.867 57.6 23.467 12.8-80 42.667 18.133 6.4-102.4-23.467 72.533-46.933-14.933-12.8 76.8-57.6-27.733-25.6 114.133 29.867 13.867z" />
<glyph unicode="&#xe94d;" d="M749.867 250.667l11.733-65.067 39.467 16 8.533-54.4 28.8 12.8 4.267-70.4-16 50.133-32-10.667-8.533 53.333-39.467-19.2-17.067 77.867 20.267 9.6z" />
<glyph unicode="&#xe94e;" d="M825.6 372.267c-13.867 50.133-61.867 86.4-120.533 86.4-40.533 0-77.867-18.133-101.333-49.067-64-2.133-114.133-54.4-114.133-119.467 0-48 27.733-89.6 68.267-108.8l-8.533 58.667c-10.667 13.867-17.067 30.933-17.067 49.067 0 41.6 33.067 75.733 73.6 76.8-4.267-14.933-3.2-29.867 13.867-36.267 0 10.667 3.2 22.4 7.467 34.133 0 0 0 0 0 0s0 1.067 0 1.067c2.133 5.333 4.267 9.6 7.467 13.867 13.867 21.333 40.533 36.267 70.4 36.267 42.667 0 77.867-28.8 81.067-66.133-17.067-3.2-28.8-11.733-24.533-33.067 6.4 4.267 13.867 8.533 22.4 10.667 0 0 0 0 0 0 2.133 1.067 3.2 1.067 5.333 2.133 0 0 1.067 0 1.067 0 5.333 1.067 11.733 2.133 18.133 2.133 36.267 0 65.067-26.667 65.067-58.667 0-16-7.467-30.933-19.2-41.6l3.2-48c35.2 17.067 59.733 51.2 59.733 90.667 0 50.133-39.467 91.733-91.733 99.2z" />
<glyph unicode="&#xe94f;" d="M262.4 480c27.733 0 51.2-20.267 53.333-45.867-11.733-2.133-19.2-8.533-16-22.4 4.267 3.2 9.6 5.333 14.933 7.467 0 0 0 0 0 0 1.067 0 2.133 1.067 3.2 1.067 0 0 0 0 1.067 0 3.2 1.067 7.467 1.067 11.733 1.067 23.467 0 42.667-18.133 42.667-40.533 0-21.333-17.067-38.4-39.467-40.533v0h-142.933c-23.467 4.267-41.6 26.667-41.6 52.267 0 28.8 21.333 52.267 48 52.267-3.2-10.667-2.133-20.267 9.6-24.533 0 7.467 2.133 14.933 5.333 23.467 0 0 0 0 0 0s0 0 0 1.067c1.067 3.2 3.2 6.4 4.267 9.6 9.6 16 26.667 25.6 45.867 25.6zM262.4 522.667c-28.8 0-56.533-12.8-74.667-34.133-45.867-5.333-81.067-45.867-81.067-94.933 0-43.733 27.733-80 67.2-91.733 5.333-2.133 10.667-3.2 17.067-3.2h142.933c3.2 0 6.4 0 9.6 1.067 41.6 6.4 72.533 40.533 72.533 82.133 0 38.4-26.667 70.4-62.933 80-12.8 35.2-49.067 60.8-90.667 60.8v0z" />
<glyph unicode="&#xe950;" d="M496 693.333h21.333c8.533 0 16 7.467 16 16v128c0 8.533-7.467 16-16 16h-21.333c-8.533 0-16-7.467-16-16v-128c0-8.533 7.467-16 16-16z" />
<glyph unicode="&#xe951;" d="M689.067 617.6c6.4-6.4 16-6.4 22.4 0l90.667 90.667c6.4 6.4 6.4 16 0 22.4l-14.933 14.933c-6.4 6.4-16 6.4-22.4 0l-90.667-90.667c-6.4-6.4-6.4-16 0-22.4l14.933-14.933z" />
<glyph unicode="&#xe952;" d="M305.067 610.133c6.4-6.4 16-6.4 22.4 0l14.933 14.933c6.4 6.4 6.4 16 0 22.4l-90.667 90.667c-6.4 6.4-16 6.4-22.4 0l-14.933-14.933c-6.4-6.4-6.4-16 0-22.4l90.667-90.667z" />
<glyph unicode="&#xe953;" d="M657.067 493.867c16 4.267 32 7.467 49.067 7.467 0 0 1.067 0 1.067 0-23.467 86.4-102.4 149.333-195.2 149.333-76.8 0-142.933-42.667-177.067-104.533 14.933-8.533 28.8-20.267 39.467-35.2 23.467 52.267 76.8 88.533 138.667 88.533 67.2 0 123.733-43.733 144-105.6z" />
<glyph unicode="&#xe954;" d="M448 290.133c0 6.4 0 12.8 1.067 19.2-3.2 1.067-6.4 3.2-10.667 4.267-9.6-14.933-21.333-27.733-36.267-37.333 14.933-9.6 32-18.133 49.067-23.467-2.133 12.8-3.2 25.6-3.2 37.333z" />
<glyph unicode="&#xe955;" glyph-name="d7" d="M417.067 257.067c-8.533-33.067 9.6-67.2 39.467-75.733s60.8 10.667 69.333 43.733c8.533 33.067-25.6 135.467-25.6 135.467s-74.667-70.4-83.2-103.467zM583.467 337.067c-6.4-24.533 7.467-50.133 32-56.533s49.067 8.533 55.467 33.067-20.267 101.333-20.267 101.333-60.8-52.267-67.2-77.867zM571.733 195.2c-4.267-18.133 5.333-35.2 22.4-40.533 17.067-4.267 35.2 5.333 39.467 23.467 4.267 17.067-14.933 72.533-14.933 72.533s-42.667-38.4-46.933-55.467zM350.933 340.267c-4.267-17.067 5.333-35.2 22.4-40.533s35.2 5.333 39.467 23.467c4.267 17.067-14.933 72.533-14.933 72.533s-42.667-38.4-46.933-55.467zM478.933 105.6c-4.267-17.067 5.333-35.2 22.4-40.533s35.2 5.333 39.467 23.467c4.267 17.067-14.933 72.533-14.933 72.533s-42.667-38.4-46.933-55.467zM378.667 125.867c-3.2-11.733 3.2-23.467 14.933-26.667s23.467 4.267 26.667 16c3.2 11.733-9.6 48-9.6 48s-28.8-25.6-32-37.333zM256 199.467c-6.4-24.533 7.467-50.133 32-56.533s49.067 8.533 55.467 33.067c6.4 24.533-20.267 102.4-20.267 102.4s-60.8-53.333-67.2-78.933zM734.933 586.667c-16 98.133-107.733 170.667-218.667 170.667-77.867 0-148.267-35.2-188.8-94.933 0-1.067-1.067-1.067-1.067-2.133 0 0-1.067-1.067-1.067-1.067-4.267 1.067-9.6 2.133-13.867 2.133 0 0-1.067 0-1.067 0-114.133-5.333-203.733-96-203.733-209.067 0-88.533 55.467-165.333 136.533-194.133 12.8 14.933 26.667 28.8 40.533 41.6-70.4 14.933-123.733 78.933-123.733 152.533 0 83.2 67.2 151.467 151.467 153.6-9.6-29.867-6.4-58.667 28.8-72.533-1.067 21.333 6.4 44.8 16 67.2 0 0 0 0 0 0 0 1.067 1.067 1.067 1.067 2.133 4.267 9.6 9.6 19.2 14.933 28.8 28.8 42.667 83.2 71.467 145.067 71.467 87.467 0 160-58.667 167.467-133.333-36.267-6.4-59.733-24.533-50.133-66.133 13.867 8.533 29.867 16 45.867 21.333 0 0 0 0 0 0 3.2 1.067 7.467 2.133 10.667 3.2 1.067 0 1.067 0 2.133 0 11.733 3.2 23.467 4.267 36.267 4.267 74.667 0 135.467-52.267 135.467-117.333 0-61.867-54.4-112-122.667-117.333h-29.867c-7.467-23.467-23.467-42.667-44.8-53.333h74.667c4.267 0 8.533 1.067 12.8 1.067 92.8 12.8 162.133 84.267 162.133 170.667 0 92.8-81.067 168.533-182.4 170.667z" />
<glyph unicode="&#xe956;" glyph-name="d8" d="M734.933 554.667c-16 98.133-107.733 170.667-218.667 170.667-77.867 0-148.267-35.2-188.8-94.933 0-1.067-1.067-1.067-1.067-2.133 0 0-1.067-1.067-1.067-1.067-4.267 1.067-9.6 2.133-13.867 2.133 0 0-1.067 0-1.067 0-114.133-5.333-203.733-96-203.733-209.067 0-84.267 50.133-156.8 123.733-188.8 6.4 17.067 21.333 29.867 40.533 33.067 0 2.133 1.067 4.267 2.133 6.4-65.067 19.2-112 80-112 149.333 0 83.2 67.2 151.467 151.467 153.6-9.6-29.867-6.4-58.667 28.8-72.533-1.067 21.333 6.4 44.8 16 67.2 0 0 0 0 0 0 0 1.067 1.067 1.067 1.067 2.133 4.267 9.6 9.6 19.2 14.933 28.8 28.8 42.667 83.2 71.467 145.067 71.467 87.467 0 160-58.667 167.467-133.333-36.267-6.4-59.733-24.533-50.133-66.133 13.867 8.533 29.867 16 45.867 21.333 0 0 0 0 0 0 3.2 1.067 7.467 2.133 10.667 3.2 1.067 0 1.067 0 2.133 0 11.733 3.2 23.467 4.267 36.267 4.267 74.667 0 135.467-52.267 135.467-117.333 0-61.867-54.4-112-122.667-117.333h-39.467c2.133-8.533 2.133-21.333 1.067-29.867-1.067-6.4-5.333-17.067-10.667-23.467h50.133c4.267 0 8.533 1.067 12.8 1.067 90.667 12.8 160 84.267 160 170.667 0 92.8-81.067 168.533-182.4 170.667zM512 307.2c-2.133 3.2-5.333 4.267-8.533 4.267-2.133 0-3.2 0-5.333-1.067l-25.6-14.933-7.467 26.667c-1.067 4.267-5.333 7.467-10.667 7.467-1.067 0-1.067 0-2.133 0l-2.133 1.067c-3.2-1.067-5.333-2.133-6.4-5.333-1.067-2.133-2.133-5.333-1.067-8.533l7.467-27.733-34.133 2.133c0 0 0 0-1.067 0-5.333 0-10.667-4.267-10.667-9.6v-2.133c0-3.2 1.067-5.333 2.133-7.467s4.267-3.2 7.467-3.2l32-2.133-11.733-26.667c-1.067-3.2-1.067-5.333 0-8.533s3.2-5.333 6.4-6.4l2.133-1.067c1.067 0 2.133-1.067 4.267-1.067 4.267 0 8.533 2.133 9.6 6.4l12.8 29.867 24.533-19.2c2.133-1.067 4.267-2.133 6.4-2.133 3.2 0 5.333 1.067 7.467 3.2l1.067 2.133c2.133 2.133 3.2 5.333 3.2 8.533s-2.133 5.333-4.267 7.467l-21.333 17.067 23.467 13.867c2.133 1.067 4.267 4.267 5.333 6.4s0 6.4-1.067 8.533l-2.133 2.133zM659.2 259.2l-1.067 2.133c-2.133 3.2-5.333 4.267-8.533 4.267-2.133 0-3.2 0-5.333-1.067l-29.867-17.067-8.533 32c-1.067 4.267-5.333 7.467-10.667 7.467-1.067 0-1.067 0-2.133 0l-3.2-1.067c-3.2-1.067-5.333-2.133-6.4-5.333-1.067-2.133-2.133-5.333-1.067-8.533l8.533-33.067-40.533 3.2c0 0 0 0-1.067 0-5.333 0-10.667-4.267-10.667-9.6v-2.133c0-3.2 1.067-5.333 2.133-7.467 2.133-2.133 4.267-3.2 7.467-3.2l37.333-2.133-13.867-30.933c-1.067-3.2-1.067-5.333 0-8.533s3.2-5.333 6.4-5.333l2.133-1.067c1.067 0 2.133-1.067 4.267-1.067 4.267 0 8.533 2.133 9.6 6.4l16 35.2 28.8-22.4c2.133-1.067 4.267-2.133 6.4-2.133 3.2 0 5.333 1.067 7.467 3.2l2.133 2.133c2.133 2.133 3.2 5.333 3.2 8.533s-2.133 5.333-4.267 7.467l-25.6 20.267 27.733 16c2.133 1.067 4.267 4.267 5.333 6.4 0 2.133-1.067 5.333-2.133 7.467zM388.267 240c-2.133 3.2-5.333 4.267-8.533 4.267-2.133 0-3.2 0-5.333-1.067l-29.867-17.067-8.533 32c-1.067 4.267-5.333 7.467-10.667 7.467-1.067 0-1.067 0-2.133 0l-3.2-1.067c-3.2-1.067-5.333-2.133-6.4-5.333-1.067-2.133-2.133-5.333-1.067-8.533l8.533-33.067-40.533 3.2c0 0 0 0-1.067 0-5.333 0-10.667-4.267-10.667-9.6v-2.133c0-3.2 1.067-5.333 2.133-7.467 2.133-2.133 4.267-3.2 7.467-3.2l37.333-2.133-13.867-30.933c-1.067-3.2-1.067-5.333 0-8.533s3.2-5.333 6.4-5.333l2.133-1.067c1.067 0 2.133-1.067 4.267-1.067 4.267 0 8.533 2.133 9.6 6.4l16 35.2 28.8-22.4c2.133-1.067 4.267-2.133 6.4-2.133 3.2 0 5.333 1.067 7.467 3.2l2.133 2.133c2.133 2.133 3.2 5.333 3.2 8.533s-2.133 5.333-4.267 7.467l-25.6 20.267 27.733 16c2.133 1.067 4.267 4.267 5.333 6.4 1.067 3.2 0 6.4-1.067 8.533l-2.133 1.067z" />
<glyph unicode="&#xe957;" d="M293.333 259.2c0 3.2 0 5.333 0 7.467h-86.4c-33.067 5.333-57.6 36.267-57.6 72.533 0 39.467 29.867 71.467 66.133 72.533-4.267-13.867-3.2-27.733 12.8-34.133 0 9.6 2.133 21.333 6.4 32 0 0 0 0 0 0s0 1.067 0 1.067c2.133 4.267 4.267 9.6 6.4 13.867 12.8 20.267 36.267 34.133 64 34.133 30.933 0 56.533-17.067 68.267-42.667 11.733 8.533 24.533 14.933 38.4 20.267-18.133 38.4-58.667 65.067-105.6 65.067-37.333 0-72.533-17.067-93.867-45.867-58.667-3.2-104.533-53.333-104.533-115.2 0-56.533 40.533-105.6 92.8-115.2 2.133 0 4.267-1.067 7.467-1.067h89.6c-3.2 11.733-4.267 23.467-4.267 35.2z" />
<glyph unicode="&#xe958;" d="M755.2 358.4c-12.8 70.4-74.667 121.6-149.333 121.6-52.267 0-101.333-26.667-129.067-69.333-1.067 0-3.2 0-4.267 0 0 0-1.067 0-1.067 0-78.933-2.133-140.8-69.333-140.8-151.467 0-54.4 27.733-103.467 69.333-131.2l25.6 34.133c-30.933 19.2-52.267 55.467-52.267 97.067 0 59.733 43.733 107.733 98.133 108.8-6.4-21.333-4.267-41.6 19.2-51.2 0 14.933 4.267 32 10.667 48 0 0 0 0 0 0 0 1.067 0 1.067 1.067 2.133 3.2 7.467 6.4 13.867 9.6 20.267 19.2 30.933 54.4 51.2 93.867 51.2 57.6 0 104.533-41.6 108.8-94.933-23.467-4.267-38.4-17.067-32-46.933 8.533 6.4 19.2 11.733 29.867 14.933 0 0 0 0 0 0 2.133 1.067 4.267 2.133 7.467 2.133 0 0 1.067 0 1.067 0 7.467 2.133 16 3.2 23.467 3.2 49.067 0 88.533-37.333 88.533-83.2 0-35.2-23.467-66.133-56.533-77.867 4.267-12.8 8.533-26.667 11.733-41.6 51.2 17.067 88.533 65.067 88.533 119.467-2.133 65.067-54.4 119.467-121.6 124.8z" />
<glyph unicode="&#xe959;" d="M629.333 199.467c-2.133 3.2-5.333 4.267-8.533 4.267-2.133 0-3.2 0-5.333-1.067l-25.6-14.933-7.467 27.733c-1.067 4.267-5.333 7.467-10.667 7.467-1.067 0-1.067 0-2.133 0l-2.133-1.067c-3.2-1.067-5.333-2.133-6.4-5.333-1.067-2.133-2.133-5.333-1.067-8.533l7.467-27.733-34.133 2.133c0 0 0 0-1.067 0-5.333 0-10.667-4.267-10.667-9.6v-2.133c0-3.2 1.067-5.333 2.133-7.467 2.133-2.133 4.267-3.2 7.467-3.2l32-2.133-11.733-26.667c-1.067-3.2-1.067-5.333 0-8.533s3.2-5.333 6.4-6.4l2.133-1.067c1.067 0 2.133-1.067 4.267-1.067 4.267 0 8.533 2.133 9.6 6.4l12.8 29.867 24.533-19.2c2.133-1.067 4.267-2.133 6.4-2.133 3.2 0 5.333 1.067 7.467 3.2l1.067 2.133c2.133 2.133 3.2 5.333 3.2 8.533s-2.133 5.333-4.267 7.467l-21.333 17.067 23.467 13.867c2.133 1.067 4.267 4.267 5.333 6.4s0 6.4-1.067 8.533l-2.133 3.2z" />
<glyph unicode="&#xe95a;" d="M755.2 152.533l-1.067 2.133c-2.133 3.2-5.333 4.267-8.533 4.267-2.133 0-3.2 0-5.333-1.067l-29.867-17.067-8.533 32c-1.067 4.267-5.333 7.467-10.667 7.467-1.067 0-1.067 0-2.133 0l-3.2-1.067c-3.2-1.067-5.333-2.133-6.4-5.333-1.067-2.133-2.133-5.333-1.067-8.533l8.533-33.067-40.533 3.2c0 0 0 0-1.067 0-5.333 0-10.667-4.267-10.667-9.6v-2.133c0-3.2 1.067-5.333 2.133-7.467 2.133-2.133 4.267-3.2 7.467-3.2l37.333-2.133-13.867-30.933c-1.067-3.2-1.067-5.333 0-8.533s3.2-5.333 6.4-5.333l2.133-1.067c1.067 0 2.133-1.067 4.267-1.067 4.267 0 8.533 2.133 9.6 6.4l16 35.2 28.8-22.4c2.133-1.067 4.267-2.133 6.4-2.133 3.2 0 5.333 1.067 7.467 3.2l2.133 2.133c2.133 2.133 3.2 5.333 3.2 8.533s-2.133 5.333-4.267 7.467l-25.6 20.267 27.733 16c2.133 1.067 4.267 4.267 5.333 6.4 0 2.133-1.067 5.333-2.133 7.467z" />
<glyph unicode="&#xe95b;" d="M535.467 133.333c-2.133 3.2-5.333 4.267-8.533 4.267-2.133 0-3.2 0-5.333-1.067l-29.867-17.067-8.533 32c-1.067 4.267-5.333 7.467-10.667 7.467-1.067 0-1.067 0-2.133 0l-3.2-1.067c-3.2-1.067-5.333-2.133-6.4-5.333-1.067-2.133-2.133-5.333-1.067-8.533l8.533-33.067-40.533 3.2c0 0 0 0-1.067 0-5.333 0-10.667-4.267-10.667-9.6v-2.133c0-3.2 1.067-5.333 2.133-7.467 2.133-2.133 4.267-3.2 7.467-3.2l37.333-2.133-13.867-30.933c-1.067-3.2-1.067-5.333 0-8.533s3.2-5.333 6.4-5.333l2.133-1.067c1.067 0 2.133-1.067 4.267-1.067 4.267 0 8.533 2.133 9.6 6.4l16 35.2 28.8-22.4c2.133-1.067 4.267-2.133 6.4-2.133 3.2 0 5.333 1.067 7.467 3.2l2.133 2.133c2.133 2.133 3.2 5.333 3.2 8.533s-2.133 5.333-4.267 7.467l-25.6 20.267 27.733 16c2.133 1.067 4.267 4.267 5.333 6.4 1.067 3.2 0 6.4-1.067 8.533l-2.133 1.067z" />
<glyph unicode="&#xe95c;" d="M378.667 520.533c25.6 46.933 75.733 78.933 133.333 78.933 60.8 0 113.067-36.267 137.6-87.467 22.4-5.333 42.667-13.867 61.867-26.667-18.133 94.933-100.267 165.333-199.467 165.333-80 0-149.333-46.933-182.4-114.133 18.133-2.133 34.133-7.467 49.067-16z" />
<glyph unicode="&#xe95d;" d="M689.067 617.6c6.4-6.4 16-6.4 22.4 0l90.667 90.667c6.4 6.4 6.4 16 0 22.4l-14.933 14.933c-6.4 6.4-16 6.4-22.4 0l-90.667-90.667c-6.4-6.4-6.4-16 0-22.4l14.933-14.933z" />
<glyph unicode="&#xe95e;" d="M305.067 610.133c6.4-6.4 16-6.4 22.4 0l14.933 14.933c6.4 6.4 6.4 16 0 22.4l-90.667 90.667c-6.4 6.4-16 6.4-22.4 0l-14.933-14.933c-6.4-6.4-6.4-16 0-22.4l90.667-90.667z" />
<glyph unicode="&#xe95f;" d="M496 693.333h21.333c8.533 0 16 7.467 16 16v128c0 8.533-7.467 16-16 16h-21.333c-8.533 0-16-7.467-16-16v-128c0-8.533 7.467-16 16-16z" />
<glyph unicode="&#xe960;" d="M901.333 469.333h-128c-8.533 0-16-7.467-16-16v-9.6c6.4-8.533 12.8-18.133 17.067-27.733h126.933c8.533 0 16 7.467 16 16v21.333c0 8.533-7.467 16-16 16z" />
<glyph unicode="&#xe961;" d="M713.6 158.933c-1.067 2.133-4.267 3.2-6.4 3.2-1.067 0-3.2 0-4.267-1.067l-19.2-10.667-5.333 20.267c-1.067 3.2-4.267 6.4-7.467 6.4-1.067 0-1.067 0-2.133 0h-2.133c-2.133 0-4.267-2.133-5.333-3.2 0-3.2-1.067-5.333 0-7.467l5.333-20.267-25.6 2.133c0 0 0 0-1.067 0-4.267 0-7.467-3.2-8.533-7.467v-2.133c0-2.133 0-4.267 2.133-6.4 1.067-2.133 3.2-2.133 5.333-3.2l24.533-2.133-8.533-20.267c-1.067-2.133-1.067-4.267 0-6.4s2.133-3.2 4.267-4.267h2.133c1.067 0 2.133 0 3.2 0 3.2 0 6.4 2.133 7.467 5.333l9.6 22.4 19.2-14.933c1.067-1.067 3.2-2.133 5.333-2.133s4.267 1.067 6.4 2.133l1.067 1.067c1.067 2.133 2.133 4.267 2.133 6.4s-1.067 4.267-3.2 5.333l-16 12.8 18.133 9.6c2.133 1.067 3.2 3.2 4.267 5.333s0 4.267-1.067 6.4l-4.267 3.2z" />
<glyph unicode="&#xe962;" d="M817.067 122.667l-1.067 2.133c-1.067 2.133-4.267 3.2-6.4 3.2-1.067 0-3.2 0-4.267-1.067l-22.4-12.8-6.4 24.533c-1.067 3.2-4.267 6.4-7.467 6.4-1.067 0-1.067 0-2.133 0h-2.133c-2.133 0-4.267-2.133-5.333-3.2-1.067-2.133-1.067-4.267-1.067-6.4l6.4-24.533-30.933 2.133c0 0 0 0-1.067 0-4.267 0-7.467-3.2-8.533-7.467v-2.133c0-2.133 0-4.267 2.133-6.4 1.067-2.133 3.2-2.133 5.333-3.2l28.8-2.133-10.667-23.467c-1.067-2.133-1.067-4.267 0-6.4s2.133-3.2 4.267-4.267l2.133-1.067c1.067 0 2.133-1.067 3.2-1.067 3.2 0 6.4 2.133 7.467 5.333l11.733 26.667 22.4-17.067c1.067-1.067 3.2-2.133 5.333-2.133s4.267 1.067 6.4 2.133l1.067 1.067c1.067 2.133 2.133 4.267 2.133 6.4s-1.067 4.267-3.2 5.333l-19.2 16 21.333 11.733c2.133 1.067 3.2 3.2 4.267 5.333 0 2.133 0 4.267-2.133 6.4z" />
<glyph unicode="&#xe963;" d="M634.667 112c-1.067 2.133-4.267 3.2-6.4 3.2-1.067 0-3.2 0-4.267-1.067l-22.4-12.8-6.4 24.533c-1.067 3.2-4.267 6.4-7.467 6.4-1.067 0-1.067 0-2.133 0h-2.133c-2.133 0-4.267-2.133-5.333-3.2-1.067-2.133-1.067-4.267-1.067-6.4l6.4-24.533-30.933 2.133c0 0 0 0-1.067 0-4.267 0-7.467-3.2-8.533-7.467v-2.133c0-2.133 0-4.267 2.133-6.4 1.067-2.133 3.2-2.133 5.333-3.2l28.8-2.133-10.667-23.467c-1.067-2.133-1.067-4.267 0-6.4s2.133-3.2 4.267-4.267l2.133-1.067c1.067 0 2.133 0 3.2 0 3.2 0 6.4 2.133 7.467 5.333l11.733 26.667 22.4-17.067c1.067-1.067 3.2-2.133 5.333-2.133s4.267 1.067 6.4 2.133l1.067 1.067c1.067 2.133 2.133 4.267 2.133 6.4s-1.067 4.267-3.2 5.333l-20.267 14.933 21.333 11.733c2.133 1.067 3.2 3.2 4.267 5.333 0 2.133 0 4.267-1.067 6.4l-1.067 2.133z" />
<glyph unicode="&#xe964;" d="M262.4 480c27.733 0 51.2-20.267 53.333-45.867-11.733-2.133-19.2-8.533-16-22.4 4.267 3.2 9.6 5.333 14.933 7.467 0 0 0 0 0 0 1.067 0 2.133 1.067 3.2 1.067 0 0 0 0 1.067 0 3.2 1.067 7.467 1.067 11.733 1.067 23.467 0 42.667-18.133 42.667-40.533 0-21.333-17.067-38.4-39.467-40.533v0h-142.933c-23.467 4.267-41.6 26.667-41.6 52.267 0 28.8 21.333 52.267 48 52.267-3.2-10.667-2.133-20.267 9.6-24.533 0 7.467 2.133 14.933 5.333 23.467 0 0 0 0 0 0s0 0 0 1.067c1.067 3.2 3.2 6.4 4.267 9.6 9.6 16 26.667 25.6 45.867 25.6zM262.4 522.667c-28.8 0-56.533-12.8-74.667-34.133-45.867-5.333-81.067-45.867-81.067-94.933 0-43.733 27.733-80 67.2-91.733 5.333-2.133 10.667-3.2 17.067-3.2h142.933c3.2 0 6.4 0 9.6 1.067 41.6 6.4 72.533 40.533 72.533 82.133 0 38.4-26.667 70.4-62.933 80-12.8 35.2-49.067 60.8-90.667 60.8v0z" />
<glyph unicode="&#xe965;" d="M825.6 297.6c-13.867 50.133-61.867 86.4-120.533 86.4-40.533 0-77.867-18.133-101.333-49.067-64-2.133-114.133-54.4-114.133-119.467 0-32 12.8-61.867 33.067-83.2 4.267 2.133 24.533 26.667 29.867 30.933-12.8 13.867-20.267 33.067-20.267 52.267 0 41.6 33.067 75.733 73.6 76.8-4.267-14.933-3.2-29.867 13.867-36.267 0 10.667 3.2 22.4 7.467 34.133 0 0 0 0 0 0s0 1.067 0 1.067c2.133 5.333 4.267 9.6 7.467 13.867 13.867 21.333 40.533 36.267 70.4 36.267 42.667 0 77.867-28.8 81.067-66.133-17.067-3.2-28.8-11.733-24.533-33.067 6.4 4.267 13.867 8.533 22.4 10.667 0 0 0 0 0 0 2.133 1.067 3.2 1.067 5.333 2.133 0 0 1.067 0 1.067 0 5.333 1.067 11.733 2.133 18.133 2.133 36.267 0 65.067-26.667 65.067-58.667 0-19.2-9.6-35.2-25.6-45.867 1.067-1.067 1.067-2.133 2.133-3.2l1.067-1.067c7.467-11.733 10.667-25.6 7.467-38.4 34.133 17.067 56.533 51.2 56.533 89.6 2.133 49.067-37.333 90.667-89.6 98.133z" />
<glyph unicode="&#xe966;" d="M825.6 297.6c-13.867 50.133-61.867 86.4-120.533 86.4-40.533 0-77.867-18.133-101.333-49.067-64-2.133-114.133-54.4-114.133-119.467 0-32 12.8-61.867 33.067-83.2 4.267 2.133 24.533 26.667 29.867 30.933-12.8 13.867-20.267 33.067-20.267 52.267 0 41.6 33.067 75.733 73.6 76.8-4.267-14.933-3.2-29.867 13.867-36.267 0 10.667 3.2 22.4 7.467 34.133 0 0 0 0 0 0s0 1.067 0 1.067c2.133 5.333 4.267 9.6 7.467 13.867 13.867 21.333 40.533 36.267 70.4 36.267 42.667 0 77.867-28.8 81.067-66.133-17.067-3.2-28.8-11.733-24.533-33.067 6.4 4.267 13.867 8.533 22.4 10.667 0 0 0 0 0 0 2.133 1.067 3.2 1.067 5.333 2.133 0 0 1.067 0 1.067 0 5.333 1.067 11.733 2.133 18.133 2.133 36.267 0 65.067-26.667 65.067-58.667 0-19.2-9.6-35.2-25.6-45.867 1.067-1.067 10.667-28.8 10.667-42.667 34.133 17.067 56.533 51.2 56.533 89.6 2.133 49.067-37.333 90.667-89.6 98.133z" />
<glyph unicode="&#xe967;" d="M371.2 505.6c22.4 55.467 76.8 94.933 140.8 94.933 84.267 0 152.533-68.267 152.533-152.533 0-11.733-1.067-22.4-3.2-33.067 14.933 4.267 29.867 6.4 45.867 6.4 2.133 0 4.267 0 6.4 0 1.067 8.533 2.133 18.133 2.133 26.667 0 112-90.667 202.667-202.667 202.667-77.867 0-146.133-44.8-180.267-109.867 14.933-8.533 27.733-21.333 38.4-35.2z" />
<glyph unicode="&#xe968;" d="M477.867 299.733c-14.933 3.2-29.867 9.6-42.667 17.067-9.6-14.933-22.4-26.667-37.333-36.267 18.133-12.8 38.4-22.4 59.733-27.733 4.267 17.067 10.667 33.067 20.267 46.933z" />
<glyph unicode="&#xe969;" d="M757.333 453.333v-21.333c0-8.533 7.467-16 16-16h128c8.533 0 16 7.467 16 16v21.333c0 8.533-7.467 16-16 16h-128c-8.533 0-16-7.467-16-16z" />
<glyph unicode="&#xe96a;" d="M496 693.333h21.333c8.533 0 16 7.467 16 16v128c0 8.533-7.467 16-16 16h-21.333c-8.533 0-16-7.467-16-16v-128c0-8.533 7.467-16 16-16z" />
<glyph unicode="&#xe96b;" d="M689.067 617.6c6.4-6.4 16-6.4 22.4 0l90.667 90.667c6.4 6.4 6.4 16 0 22.4l-14.933 14.933c-6.4 6.4-16 6.4-22.4 0l-90.667-90.667c-6.4-6.4-6.4-16 0-22.4l14.933-14.933z" />
<glyph unicode="&#xe96c;" d="M305.067 610.133c6.4-6.4 16-6.4 22.4 0l14.933 14.933c6.4 6.4 6.4 16 0 22.4l-90.667 90.667c-6.4 6.4-16 6.4-22.4 0l-14.933-14.933c-6.4-6.4-6.4-16 0-22.4l90.667-90.667z" />
<glyph unicode="&#xe96d;" glyph-name="d36" d="M734.933 597.333c-16 98.133-107.733 170.667-218.667 170.667-77.867 0-148.267-35.2-188.8-94.933 0-1.067-1.067-1.067-1.067-2.133 0 0-1.067-1.067-1.067-1.067-4.267 1.067-9.6 2.133-13.867 2.133 0 0-1.067 0-1.067 0-114.133-5.333-203.733-96-203.733-209.067 0-97.067 66.133-179.2 160-201.6 4.267-2.133 8.533-3.2 12.8-4.267l11.733 52.267c-74.667 11.733-131.2 76.8-131.2 153.6 0 83.2 67.2 151.467 151.467 153.6-9.6-29.867-6.4-58.667 28.8-72.533-1.067 21.333 6.4 44.8 16 67.2 0 0 0 0 0 0 0 1.067 1.067 1.067 1.067 2.133 4.267 9.6 9.6 19.2 14.933 28.8 28.8 42.667 83.2 71.467 145.067 71.467 87.467 0 160-58.667 167.467-133.333-36.267-6.4-59.733-24.533-50.133-66.133 13.867 8.533 29.867 16 45.867 21.333 0 0 0 0 0 0 3.2 1.067 7.467 2.133 10.667 3.2 1.067 0 1.067 0 2.133 0 11.733 3.2 23.467 4.267 36.267 4.267 74.667 0 135.467-52.267 135.467-117.333 0-61.867-54.4-112-122.667-117.333h-40.533l9.6-53.333h30.933c4.267 0 8.533 1.067 12.8 1.067 92.8 12.8 162.133 84.267 162.133 170.667 0 92.8-81.067 168.533-182.4 170.667zM398.933 228.267c-2.133 3.2-5.333 5.333-8.533 5.333-2.133 0-4.267 0-5.333-1.067l-25.6-16-7.467 30.933c-1.067 5.333-5.333 8.533-10.667 8.533-1.067 0-2.133 0-2.133 0l-2.133-1.067c-3.2-1.067-5.333-2.133-6.4-5.333-1.067-2.133-2.133-5.333-1.067-8.533l7.467-32-36.267 2.133c0 0 0 0-1.067 0-5.333 0-10.667-4.267-10.667-9.6v-2.133c0-3.2 1.067-5.333 2.133-7.467 2.133-2.133 4.267-3.2 7.467-3.2l33.067-2.133-12.8-30.933c-1.067-2.133-1.067-5.333 0-8.533 1.067-2.133 3.2-4.267 5.333-5.333l2.133-1.067c1.067 0 2.133-1.067 4.267-1.067 4.267 0 8.533 2.133 9.6 6.4l13.867 33.067 25.6-21.333c2.133-2.133 4.267-2.133 6.4-2.133 3.2 0 6.4 1.067 8.533 3.2l2.133 2.133c2.133 2.133 3.2 5.333 2.133 7.467 0 3.2-1.067 5.333-4.267 7.467l-23.467 20.267 25.6 16c2.133 1.067 4.267 4.267 5.333 6.4 1.067 3.2 0 5.333-1.067 8.533l-2.133 1.067zM624 286.933c2.133-2.133 4.267-2.133 6.4-2.133 3.2 0 6.4 1.067 8.533 3.2l2.133 2.133c2.133 2.133 3.2 5.333 2.133 7.467 0 3.2-1.067 5.333-4.267 7.467l-23.467 20.267 25.6 16c2.133 1.067 4.267 4.267 5.333 6.4 1.067 3.2 0 5.333-1.067 8.533l-1.067 2.133c-2.133 3.2-5.333 5.333-9.6 5.333-2.133 0-4.267 0-5.333-1.067l-25.6-16-7.467 30.933c-1.067 5.333-5.333 8.533-10.667 8.533-1.067 0-2.133 0-2.133 0l-2.133-1.067c-3.2-1.067-5.333-2.133-6.4-5.333-1.067-2.133-2.133-5.333-1.067-8.533l7.467-32-37.333 1.067c0 0 0 0-1.067 0-5.333 0-10.667-4.267-10.667-9.6v-2.133c0-3.2 1.067-5.333 2.133-7.467 2.133-2.133 4.267-3.2 7.467-3.2l33.067-2.133-12.8-30.933c-1.067-2.133-1.067-5.333 0-8.533 1.067-2.133 3.2-4.267 5.333-5.333l2.133-1.067c1.067-1.067 3.2-1.067 4.267-1.067 4.267 0 8.533 2.133 9.6 6.4l13.867 33.067 26.667-21.333zM446.933 283.733c0 3.2-2.133 5.333-4.267 7.467l-12.8 10.667 13.867 8.533c2.133 1.067 4.267 4.267 5.333 6.4s0 5.333-1.067 8.533l-1.067 1.067c-3.2 3.2-6.4 4.267-9.6 4.267-2.133 0-4.267 0-5.333-1.067l-14.933-8.533-4.267 17.067c-1.067 5.333-5.333 8.533-10.667 8.533-1.067 0-2.133 0-2.133 0h-2.133c-3.2-1.067-5.333-2.133-6.4-5.333-1.067-2.133-2.133-5.333-1.067-8.533l4.267-17.067-21.333 1.067c0 0 0 0-1.067 0-5.333 0-10.667-4.267-10.667-9.6v-2.133c0-3.2 1.067-5.333 2.133-7.467 2.133-2.133 4.267-3.2 7.467-3.2l19.2-1.067-6.4-18.133c-1.067-2.133-1.067-5.333 0-8.533 1.067-2.133 3.2-4.267 6.4-5.333l2.133-1.067c1.067 0 2.133-1.067 4.267-1.067 4.267 0 8.533 2.133 9.6 6.4l8.533 19.2 14.933-11.733c2.133-2.133 4.267-2.133 6.4-2.133 3.2 0 6.4 1.067 8.533 3.2l1.067 1.067c0 2.133 1.067 5.333 1.067 8.533zM528 253.867c-2.133 3.2-5.333 5.333-8.533 5.333-2.133 0-4.267 0-5.333-1.067l-14.933-8.533-4.267 17.067c-1.067 5.333-5.333 8.533-10.667 8.533-1.067 0-2.133 0-2.133 0h-2.133c-3.2-1.067-5.333-2.133-6.4-5.333-1.067-2.133-2.133-5.333-1.067-8.533l4.267-17.067-21.333 1.067c0 0 0 0-1.067 0-5.333 0-10.667-4.267-10.667-9.6v-2.133c0-3.2 1.067-5.333 2.133-7.467 2.133-2.133 4.267-3.2 7.467-3.2l19.2-1.067-6.4-19.2c-1.067-2.133-1.067-5.333 0-8.533s3.2-4.267 6.4-5.333l2.133-1.067c1.067 0 2.133-1.067 4.267-1.067 4.267 0 8.533 2.133 9.6 6.4l7.467 19.2 14.933-11.733c2.133-2.133 4.267-2.133 6.4-2.133 3.2 0 6.4 1.067 7.467 3.2l1.067 1.067c2.133 2.133 3.2 5.333 3.2 7.467s-2.133 5.333-4.267 7.467l-12.8 10.667 13.867 8.533c2.133 1.067 4.267 4.267 5.333 6.4s0 5.333-1.067 8.533l-2.133 2.133zM683.733 217.6l-1.067 2.133c-2.133 3.2-5.333 5.333-8.533 5.333-2.133 0-4.267 0-5.333-1.067l-18.133-10.667-5.333 20.267c-1.067 5.333-5.333 8.533-10.667 8.533-1.067 0-2.133 0-2.133 0h-2.133c-3.2-1.067-5.333-2.133-6.4-5.333-1.067-2.133-2.133-5.333-1.067-8.533l5.333-21.333-25.6 2.133c0 0 0 0-1.067 0-5.333 0-10.667-4.267-10.667-9.6v-2.133c0-3.2 1.067-5.333 2.133-7.467 2.133-2.133 4.267-3.2 7.467-3.2l23.467-2.133-8.533-20.267c-1.067-2.133-1.067-5.333 0-8.533s3.2-4.267 6.4-5.333l2.133-1.067c1.067 0 2.133-1.067 4.267-1.067 4.267 0 8.533 2.133 9.6 6.4l9.6 22.4 18.133-14.933c2.133-2.133 4.267-2.133 6.4-2.133 3.2 0 6.4 1.067 8.533 3.2l1.067 1.067c2.133 2.133 3.2 5.333 2.133 7.467 0 3.2-2.133 5.333-4.267 7.467l-17.067 12.8 17.067 10.667c2.133 1.067 4.267 4.267 5.333 6.4 1.067 3.2 0 6.4-1.067 8.533z" />
<glyph unicode="&#xe96e;" d="M288 291.2c0 3.2 0 5.333 0 7.467h-81.067c-33.067 5.333-57.6 36.267-57.6 72.533 0 39.467 29.867 71.467 66.133 72.533-4.267-13.867-3.2-27.733 12.8-34.133 0 9.6 2.133 21.333 6.4 32 0 0 0 0 0 0s0 1.067 0 1.067c2.133 4.267 4.267 9.6 6.4 13.867 12.8 20.267 36.267 34.133 64 34.133 28.8 0 53.333-14.933 65.067-37.333 11.733 8.533 24.533 14.933 37.333 20.267-19.2 36.267-58.667 60.8-103.467 60.8-37.333 0-72.533-17.067-93.867-45.867-58.667-3.2-104.533-53.333-104.533-115.2 0-56.533 40.533-105.6 92.8-115.2 2.133 0 4.267-1.067 7.467-1.067h84.267c-1.067 10.667-2.133 22.4-2.133 34.133z" />
<glyph unicode="&#xe96f;" d="M417.067 199.467c-26.667 20.267-43.733 53.333-43.733 90.667 0 59.733 43.733 107.733 98.133 108.8-6.4-21.333-4.267-41.6 19.2-51.2 0 14.933 4.267 32 10.667 48 0 0 0 0 0 0 0 1.067 0 1.067 1.067 2.133 3.2 7.467 6.4 13.867 9.6 20.267 19.2 30.933 54.4 51.2 93.867 51.2 57.6 0 104.533-41.6 108.8-94.933-21.333-4.267-36.267-16-33.067-41.6l20.267 5.333c3.2 1.067 6.4 3.2 10.667 4.267 0 0 0 0 0 0 2.133 1.067 4.267 2.133 7.467 2.133 0 0 1.067 0 1.067 0 7.467 2.133 16 3.2 23.467 3.2 49.067 0 88.533-37.333 88.533-83.2 0-25.6-11.733-48-30.933-64l-9.6-10.667 21.333-33.067c37.333 22.4 61.867 62.933 61.867 107.733 0 66.133-52.267 120.533-119.467 125.867-12.8 70.4-74.667 121.6-149.333 121.6-52.267 0-101.333-26.667-129.067-69.333-1.067 0-3.2 0-4.267 0 0 0-1.067 0-1.067 0-80-2.133-141.867-69.333-141.867-151.467 0-41.6 16-81.067 42.667-108.8l43.733 17.067z" />
<glyph unicode="&#xe970;" d="M503.467 132.267c-2.133 3.2-5.333 5.333-8.533 5.333-2.133 0-4.267 0-5.333-1.067l-25.6-16-7.467 30.933c-1.067 5.333-5.333 8.533-10.667 8.533-1.067 0-2.133 0-2.133 0l-2.133-1.067c-3.2-1.067-5.333-2.133-6.4-5.333-1.067-2.133-2.133-5.333-1.067-8.533l7.467-32-36.267 2.133c0 0 0 0-1.067 0-5.333 0-10.667-4.267-10.667-9.6v-2.133c0-3.2 1.067-5.333 2.133-7.467 2.133-2.133 4.267-3.2 7.467-3.2l33.067-2.133-12.8-30.933c-1.067-2.133-1.067-5.333 0-8.533 1.067-2.133 3.2-4.267 5.333-5.333l2.133-1.067c1.067-1.067 3.2-1.067 4.267-1.067 4.267 0 8.533 2.133 9.6 6.4l13.867 33.067 25.6-21.333c2.133-2.133 4.267-2.133 6.4-2.133 3.2 0 6.4 1.067 8.533 3.2l2.133 2.133c2.133 2.133 3.2 5.333 2.133 7.467 0 3.2-1.067 5.333-4.267 7.467l-23.467 20.267 25.6 16c2.133 1.067 4.267 4.267 5.333 6.4 1.067 3.2 0 5.333-1.067 8.533l-2.133 1.067z" />
<glyph unicode="&#xe971;" d="M728.533 190.933c2.133-2.133 4.267-2.133 6.4-2.133 3.2 0 6.4 1.067 8.533 3.2l2.133 2.133c2.133 2.133 3.2 5.333 2.133 7.467 0 3.2-1.067 5.333-4.267 7.467l-23.467 20.267 25.6 16c2.133 1.067 4.267 4.267 4.267 6.4 1.067 3.2 0 5.333-1.067 8.533l-1.067 2.133c-2.133 3.2-5.333 5.333-9.6 5.333-2.133 0-4.267 0-5.333-1.067l-25.6-16-7.467 30.933c-1.067 5.333-5.333 8.533-10.667 8.533-1.067 0-2.133 0-2.133 0l-2.133-1.067c-3.2-1.067-5.333-2.133-6.4-5.333-1.067-2.133-2.133-5.333-1.067-8.533l7.467-32-36.267 2.133c0 0 0 0-1.067 0-5.333 0-10.667-4.267-10.667-9.6v-2.133c0-3.2 1.067-5.333 2.133-7.467 2.133-2.133 4.267-3.2 7.467-3.2l33.067-2.133-12.8-30.933c-1.067-2.133-1.067-5.333 0-8.533 1.067-2.133 3.2-4.267 5.333-5.333l2.133-1.067c1.067-1.067 3.2-1.067 4.267-1.067 4.267 0 8.533 2.133 9.6 6.4l13.867 33.067 26.667-22.4z" />
<glyph unicode="&#xe972;" d="M550.4 187.733c0 3.2-2.133 5.333-4.267 7.467l-12.8 10.667 13.867 8.533c2.133 1.067 4.267 4.267 5.333 6.4s0 5.333-1.067 8.533l-1.067 1.067c-2.133 3.2-5.333 5.333-8.533 5.333-2.133 0-4.267 0-5.333-1.067l-14.933-8.533-4.267 17.067c-1.067 5.333-5.333 8.533-10.667 8.533-1.067 0-2.133 0-2.133 0h-2.133c-3.2-1.067-5.333-2.133-6.4-5.333-1.067-2.133-2.133-5.333-1.067-8.533l4.267-17.067-21.333 1.067c0 0 0 0-1.067 0-5.333 0-10.667-4.267-10.667-9.6v-2.133c0-3.2 1.067-5.333 2.133-7.467 2.133-2.133 4.267-3.2 7.467-3.2l19.2-1.067-7.467-17.067c-1.067-2.133-1.067-5.333 0-8.533 1.067-2.133 3.2-4.267 6.4-5.333l2.133-1.067c1.067 0 2.133-1.067 4.267-1.067 4.267 0 8.533 2.133 9.6 6.4l8.533 19.2 14.933-11.733c2.133-2.133 4.267-2.133 6.4-2.133 3.2 0 6.4 1.067 8.533 3.2l1.067 1.067c1.067 0 2.133 3.2 1.067 6.4z" />
<glyph unicode="&#xe973;" d="M631.467 157.867c-2.133 3.2-5.333 5.333-8.533 5.333-2.133 0-4.267 0-5.333-1.067l-14.933-8.533-4.267 17.067c-1.067 5.333-5.333 8.533-10.667 8.533-1.067 0-2.133 0-2.133 0h-2.133c-3.2-1.067-5.333-2.133-6.4-5.333-1.067-2.133-2.133-5.333-1.067-8.533l4.267-17.067-21.333 1.067c0 0 0 0-1.067 0-5.333 0-10.667-4.267-10.667-9.6v-2.133c0-3.2 1.067-5.333 2.133-7.467 2.133-2.133 4.267-3.2 7.467-3.2l19.2-1.067-6.4-19.2c-1.067-2.133-1.067-5.333 0-8.533s3.2-4.267 6.4-5.333l2.133-1.067c1.067 0 2.133-1.067 4.267-1.067 4.267 0 8.533 2.133 9.6 6.4l7.467 19.2 14.933-11.733c2.133-2.133 4.267-2.133 6.4-2.133 3.2 0 6.4 1.067 7.467 3.2l1.067 1.067c2.133 2.133 3.2 5.333 3.2 7.467s-2.133 5.333-4.267 7.467l-12.8 10.667 13.867 8.533c2.133 1.067 4.267 4.267 5.333 6.4s0 5.333-1.067 8.533l-2.133 2.133z" />
<glyph unicode="&#xe974;" d="M787.2 121.6l-1.067 2.133c-2.133 3.2-5.333 5.333-8.533 5.333-2.133 0-4.267 0-5.333-1.067l-18.133-10.667-5.333 20.267c-1.067 5.333-5.333 8.533-10.667 8.533-1.067 0-2.133 0-2.133 0h-2.133c-3.2-1.067-5.333-2.133-6.4-5.333-1.067-2.133-2.133-5.333-1.067-8.533l5.333-21.333-25.6 2.133c0 0 0 0-1.067 0-5.333 0-10.667-4.267-10.667-9.6v-2.133c0-3.2 1.067-5.333 2.133-7.467 2.133-2.133 4.267-3.2 7.467-3.2l23.467-2.133-8.533-20.267c-1.067-2.133-1.067-5.333 0-8.533s3.2-4.267 6.4-5.333l2.133-1.067c1.067 0 2.133-1.067 4.267-1.067 4.267 0 8.533 2.133 9.6 6.4l9.6 22.4 18.133-14.933c2.133-2.133 4.267-2.133 6.4-2.133 3.2 0 6.4 1.067 8.533 3.2l1.067 1.067c2.133 2.133 3.2 5.333 2.133 7.467 0 3.2-2.133 5.333-4.267 7.467l-16 12.8 17.067 10.667c2.133 1.067 4.267 4.267 5.333 6.4 0 3.2 0 6.4-2.133 8.533z" />
<glyph unicode="&#xe975;" d="M496 693.333h21.333c8.533 0 16 7.467 16 16v128c0 8.533-7.467 16-16 16h-21.333c-8.533 0-16-7.467-16-16v-128c0-8.533 7.467-16 16-16z" />
<glyph unicode="&#xe976;" d="M397.867 548.267c27.733 32 68.267 52.267 114.133 52.267 42.667 0 81.067-18.133 108.8-45.867 26.667-2.133 52.267-9.6 74.667-21.333-32 69.333-102.4 117.333-183.467 117.333-66.133 0-124.8-32-162.133-81.067 17.067-4.267 33.067-11.733 48-21.333z" />
<glyph unicode="&#xe977;" d="M689.067 617.6c6.4-6.4 16-6.4 22.4 0l90.667 90.667c6.4 6.4 6.4 16 0 22.4l-14.933 14.933c-6.4 6.4-16 6.4-22.4 0l-90.667-90.667c-6.4-6.4-6.4-16 0-22.4l14.933-14.933z" />
<glyph unicode="&#xe978;" d="M901.333 469.333h-128c-2.133 0-3.2 0-4.267-1.067 8.533-12.8 14.933-38.4 20.267-52.267 13.867 0 112 0 112 0 8.533 0 16 7.467 16 16v21.333c0 8.533-7.467 16-16 16z" />
<glyph unicode="&#xe979;" d="M305.067 610.133c6.4-6.4 16-6.4 22.4 0l14.933 14.933c6.4 6.4 6.4 16 0 22.4l-90.667 90.667c-6.4 6.4-16 6.4-22.4 0l-14.933-14.933c-6.4-6.4-6.4-16 0-22.4l90.667-90.667z" />
<glyph unicode="&#xe97a;" glyph-name="d32" d="M516.267 768c87.467 0 160-58.667 167.467-133.333-36.267-6.4-59.733-24.533-50.133-66.133 13.867 8.533 29.867 16 45.867 21.333 0 0 0 0 0 0 3.2 1.067 7.467 2.133 10.667 3.2 1.067 0 1.067 0 2.133 0 11.733 3.2 23.467 4.267 36.267 4.267 74.667 0 135.467-52.267 135.467-117.333 0-60.8-54.4-112-122.667-117.333v0h-453.333c-74.667 11.733-128 76.8-128 153.6 0 83.2 67.2 151.467 151.467 153.6-9.6-29.867-6.4-58.667 28.8-72.533-1.067 21.333 6.4 44.8 16 67.2 0 0 0 0 0 0 0 1.067 1.067 1.067 1.067 2.133 4.267 9.6 9.6 19.2 14.933 28.8 28.8 43.733 82.133 72.533 144 72.533zM516.267 821.333c-77.867 0-148.267-35.2-188.8-94.933 0-1.067-1.067-1.067-1.067-2.133 0 0-1.067-1.067-1.067-1.067-4.267 1.067-9.6 2.133-13.867 2.133 0 0-1.067 0-1.067 0-114.133-5.333-203.733-96-203.733-209.067 0-97.067 66.133-179.2 160-201.6 7.467-4.267 16-6.4 24.533-6.4h450.133c4.267 0 8.533 1.067 12.8 1.067 93.867 12.8 163.2 84.267 163.2 170.667 0 92.8-81.067 167.467-182.4 170.667-16 98.133-107.733 170.667-218.667 170.667v0zM298.667 266.667h42.667c6.4 0 10.667-4.267 10.667-10.667v-42.667c0-6.4-4.267-10.667-10.667-10.667h-42.667c-6.4 0-10.667 4.267-10.667 10.667v42.667c0 6.4 4.267 10.667 10.667 10.667zM394.667 266.667h42.667c6.4 0 10.667-4.267 10.667-10.667v-42.667c0-6.4-4.267-10.667-10.667-10.667h-42.667c-6.4 0-10.667 4.267-10.667 10.667v42.667c0 6.4 4.267 10.667 10.667 10.667zM490.667 266.667h42.667c6.4 0 10.667-4.267 10.667-10.667v-42.667c0-6.4-4.267-10.667-10.667-10.667h-42.667c-6.4 0-10.667 4.267-10.667 10.667v42.667c0 6.4 4.267 10.667 10.667 10.667zM586.667 266.667h42.667c6.4 0 10.667-4.267 10.667-10.667v-42.667c0-6.4-4.267-10.667-10.667-10.667h-42.667c-6.4 0-10.667 4.267-10.667 10.667v42.667c0 6.4 4.267 10.667 10.667 10.667zM682.667 266.667h42.667c6.4 0 10.667-4.267 10.667-10.667v-42.667c0-6.4-4.267-10.667-10.667-10.667h-42.667c-6.4 0-10.667 4.267-10.667 10.667v42.667c0 6.4 4.267 10.667 10.667 10.667zM341.333 160h42.667c6.4 0 10.667-4.267 10.667-10.667v-42.667c0-6.4-4.267-10.667-10.667-10.667h-42.667c-6.4 0-10.667 4.267-10.667 10.667v42.667c0 6.4 4.267 10.667 10.667 10.667zM437.333 160h42.667c6.4 0 10.667-4.267 10.667-10.667v-42.667c0-6.4-4.267-10.667-10.667-10.667h-42.667c-6.4 0-10.667 4.267-10.667 10.667v42.667c0 6.4 4.267 10.667 10.667 10.667zM533.333 160h42.667c6.4 0 10.667-4.267 10.667-10.667v-42.667c0-6.4-4.267-10.667-10.667-10.667h-42.667c-6.4 0-10.667 4.267-10.667 10.667v42.667c0 6.4 4.267 10.667 10.667 10.667zM629.333 160h42.667c6.4 0 10.667-4.267 10.667-10.667v-42.667c0-6.4-4.267-10.667-10.667-10.667h-42.667c-6.4 0-10.667 4.267-10.667 10.667v42.667c0 6.4 4.267 10.667 10.667 10.667zM725.333 160h42.667c6.4 0 10.667-4.267 10.667-10.667v-42.667c0-6.4-4.267-10.667-10.667-10.667h-42.667c-6.4 0-10.667 4.267-10.667 10.667v42.667c0 6.4 4.267 10.667 10.667 10.667z" />
<glyph unicode="&#xe97b;" glyph-name="d25" d="M734.933 586.667c-16 98.133-107.733 170.667-218.667 170.667-77.867 0-148.267-35.2-188.8-94.933 0-1.067-1.067-1.067-1.067-2.133 0 0-1.067-1.067-1.067-1.067-4.267 1.067-9.6 2.133-13.867 2.133 0 0-1.067 0-1.067 0-114.133-5.333-203.733-96-203.733-209.067 0-97.067 66.133-179.2 160-201.6 2.133-1.067 3.2-2.133 5.333-2.133 8.533 22.4 25.6 40.533 48 50.133h-28.8c-74.667 11.733-131.2 76.8-131.2 153.6 0 83.2 67.2 151.467 151.467 153.6-9.6-29.867-6.4-58.667 28.8-72.533-1.067 21.333 6.4 44.8 16 67.2 0 0 0 0 0 0 0 1.067 1.067 1.067 1.067 2.133 4.267 9.6 9.6 19.2 14.933 28.8 28.8 42.667 83.2 71.467 145.067 71.467 87.467 0 160-58.667 167.467-133.333-36.267-6.4-59.733-24.533-50.133-66.133 13.867 8.533 29.867 16 45.867 21.333 0 0 0 0 0 0 3.2 1.067 7.467 2.133 10.667 3.2 1.067 0 1.067 0 2.133 0 11.733 3.2 23.467 4.267 36.267 4.267 74.667 0 135.467-52.267 135.467-117.333 0-61.867-54.4-112-122.667-117.333h-60.8c4.267-9.6 6.4-20.267 6.4-30.933 0-7.467-1.067-14.933-3.2-22.4h57.6c4.267 0 8.533 1.067 12.8 1.067 92.8 12.8 162.133 84.267 162.133 170.667 0 92.8-81.067 168.533-182.4 170.667zM350.933 262.4c23.467 0 41.6-18.133 41.6-41.6s-19.2-41.6-41.6-41.6-41.6 18.133-41.6 41.6c0 22.4 19.2 41.6 41.6 41.6zM518.4 202.667c23.467 0 41.6-18.133 41.6-41.6s-19.2-41.6-41.6-41.6-41.6 18.133-41.6 41.6c0 23.467 19.2 41.6 41.6 41.6zM674.133 190.933c16 0 29.867-12.8 29.867-29.867s-13.867-29.867-29.867-29.867c-16 0-29.867 12.8-29.867 29.867s12.8 29.867 29.867 29.867zM602.667 309.333c23.467 0 41.6-18.133 41.6-41.6s-19.2-41.6-41.6-41.6-41.6 18.133-41.6 41.6c-1.067 23.467 18.133 41.6 41.6 41.6zM458.667 297.6c16 0 29.867-12.8 29.867-29.867 0-16-13.867-29.867-29.867-29.867s-29.867 12.8-29.867 29.867c0 16 13.867 29.867 29.867 29.867zM405.333 142.933c12.8 0 23.467-10.667 23.467-23.467s-10.667-23.467-23.467-23.467c-12.8 0-23.467 10.667-23.467 23.467-1.067 12.8 9.6 23.467 23.467 23.467z" />
<glyph unicode="&#xe97c;" glyph-name="d26" d="M413.867 244.267l39.467-75.733 69.333 43.733-25.6 135.467-83.2-103.467zM578.133 323.2l20.267-45.867 52.267 26.667-17.067 80-55.467-60.8zM567.467 192l22.4-40.533 39.467 23.467-14.933 72.533-46.933-55.467zM374.4 129.067l16-22.4 26.667 12.8-10.667 40.533-32-30.933zM502.4 139.733l16-22.4 26.667 12.8-9.6 40.533-33.067-30.933zM346.667 337.067l22.4-40.533 39.467 23.467-13.867 72.533-48-55.467zM263.467 197.333l32-56.533 55.467 33.067-20.267 101.333-67.2-77.867zM734.933 586.667c-16 98.133-107.733 170.667-218.667 170.667-77.867 0-148.267-35.2-188.8-94.933 0-1.067-1.067-1.067-1.067-2.133 0 0-1.067-1.067-1.067-1.067-4.267 1.067-9.6 2.133-13.867 2.133 0 0-1.067 0-1.067 0-114.133-5.333-203.733-96-203.733-209.067 0-92.8 61.867-172.8 149.333-198.4l38.4 44.8h-3.2c-74.667 11.733-131.2 76.8-131.2 153.6 0 83.2 67.2 151.467 151.467 153.6-9.6-29.867-6.4-58.667 28.8-72.533-1.067 21.333 6.4 44.8 16 67.2 0 0 0 0 0 0 0 1.067 1.067 1.067 1.067 2.133 4.267 9.6 9.6 19.2 14.933 28.8 28.8 42.667 83.2 71.467 145.067 71.467 87.467 0 160-58.667 167.467-133.333-36.267-6.4-59.733-24.533-50.133-66.133 13.867 8.533 29.867 16 45.867 21.333 0 0 0 0 0 0 3.2 1.067 7.467 2.133 10.667 3.2 1.067 0 1.067 0 2.133 0 11.733 3.2 23.467 4.267 36.267 4.267 74.667 0 135.467-52.267 135.467-117.333 0-61.867-54.4-112-122.667-117.333h-45.867l3.2-17.067-39.467-35.2h81.067c4.267 0 8.533 1.067 12.8 1.067 93.867 11.733 163.2 83.2 163.2 169.6 0 92.8-81.067 168.533-182.4 170.667z" />
<glyph unicode="&#xe97d;" glyph-name="d27" d="M438.4 209.067c-4.267-17.067 5.333-35.2 22.4-40.533 17.067-4.267 35.2 5.333 39.467 23.467 4.267 17.067-13.867 72.533-13.867 72.533s-42.667-37.333-48-55.467zM365.867 330.667c-4.267-17.067 5.333-35.2 22.4-40.533 17.067-4.267 35.2 5.333 39.467 23.467 4.267 17.067-13.867 72.533-13.867 72.533s-43.733-38.4-48-55.467zM571.733 295.467c-6.4-24.533 7.467-50.133 32-56.533s49.067 8.533 55.467 33.067c6.4 24.533-20.267 102.4-20.267 102.4s-59.733-54.4-67.2-78.933zM384 241.067c-2.133 2.133-4.267 4.267-7.467 4.267-1.067 0-3.2 0-4.267-1.067l-27.733-17.067-8.533 33.067c-1.067 4.267-4.267 6.4-8.533 6.4-1.067 0-1.067 0-2.133 0l-2.133-1.067c-2.133-1.067-4.267-2.133-5.333-4.267s-1.067-4.267-1.067-6.4l8.533-34.133-38.4 3.2c0 0 0 0-1.067 0-4.267 0-8.533-3.2-8.533-7.467v-2.133c0-2.133 1.067-4.267 2.133-6.4s3.2-3.2 5.333-3.2l36.267-3.2-13.867-33.067c-1.067-2.133-1.067-4.267 0-6.4s2.133-3.2 4.267-4.267l2.133-1.067c1.067 0 2.133-1.067 3.2-1.067 3.2 0 6.4 2.133 7.467 5.333l14.933 36.267 27.733-23.467c1.067-1.067 3.2-2.133 5.333-2.133s4.267 1.067 6.4 3.2l2.133 2.133c1.067 2.133 2.133 4.267 2.133 6.4s-1.067 4.267-3.2 5.333l-25.6 22.4 27.733 17.067c2.133 1.067 3.2 3.2 4.267 5.333 0 2.133 0 4.267-1.067 6.4l-1.067 1.067zM537.6 337.067c1.067-1.067 3.2-2.133 5.333-2.133s4.267 1.067 6.4 3.2l1.067 1.067c1.067 2.133 2.133 4.267 2.133 6.4s-1.067 4.267-3.2 6.4l-14.933 12.8 16 9.6c2.133 1.067 3.2 3.2 4.267 5.333s0 4.267-1.067 6.4l-1.067 1.067c-2.133 2.133-4.267 4.267-7.467 4.267-1.067 0-3.2 0-4.267-1.067l-17.067-10.667-5.333 19.2c-1.067 4.267-4.267 6.4-8.533 6.4-1.067 0-1.067 0-2.133 0h-2.133c-2.133 0-4.267-2.133-5.333-4.267s-1.067-4.267-1.067-6.4l5.333-20.267-23.467 2.133c0 0 0 0-1.067 0-4.267 0-8.533-3.2-8.533-7.467v-2.133c0-2.133 1.067-4.267 2.133-6.4s3.2-3.2 5.333-3.2l22.4-1.067-8.533-19.2c-1.067-2.133-1.067-4.267 0-6.4s2.133-4.267 4.267-4.267l2.133-1.067c1.067 0 2.133-1.067 3.2-1.067 3.2 0 6.4 2.133 7.467 5.333l9.6 21.333 18.133-13.867zM618.667 173.867l-1.067 2.133c-2.133 2.133-4.267 4.267-7.467 4.267-1.067 0-3.2 0-4.267-1.067l-20.267-11.733-6.4 23.467c-1.067 4.267-4.267 6.4-8.533 6.4-1.067 0-1.067 0-2.133 0h-2.133c-2.133-1.067-4.267-2.133-5.333-4.267s-1.067-4.267-1.067-6.4l6.4-24.533-27.733 2.133c0 0 0 0-1.067 0-4.267 0-8.533-3.2-8.533-7.467v-2.133c0-2.133 1.067-4.267 2.133-6.4s3.2-3.2 5.333-3.2l26.667-2.133-8.533-23.467c-1.067-2.133-1.067-4.267 0-6.4s2.133-4.267 4.267-4.267l2.133-1.067c1.067 0 2.133-1.067 3.2-1.067 3.2 0 6.4 2.133 7.467 5.333l10.667 25.6 20.267-16c1.067-1.067 3.2-2.133 5.333-2.133s4.267 1.067 6.4 3.2l1.067 1.067c1.067 2.133 2.133 4.267 2.133 6.4s-1.067 4.267-3.2 6.4l-18.133 14.933 20.267 11.733c2.133 1.067 3.2 3.2 4.267 5.333-1.067 1.067-1.067 4.267-2.133 5.333zM734.933 608c-16 98.133-107.733 170.667-218.667 170.667-77.867 0-148.267-35.2-188.8-94.933 0-1.067-1.067-1.067-1.067-2.133 0 0-1.067-1.067-1.067-1.067-4.267 1.067-9.6 2.133-13.867 2.133 0 0-1.067 0-1.067 0-114.133-5.333-203.733-96-203.733-209.067 0-97.067 66.133-179.2 160-201.6 3.2-1.067 6.4-2.133 8.533-3.2 1.067 5.333 16 51.2 16 51.2-74.667 11.733-131.2 76.8-131.2 153.6 0 83.2 67.2 151.467 151.467 153.6-9.6-29.867-6.4-58.667 28.8-72.533-1.067 21.333 6.4 44.8 16 67.2 0 0 0 0 0 0 0 1.067 1.067 1.067 1.067 2.133 4.267 9.6 9.6 19.2 14.933 28.8 28.8 42.667 83.2 71.467 145.067 71.467 87.467 0 160-58.667 167.467-133.333-36.267-6.4-59.733-24.533-50.133-66.133 13.867 8.533 29.867 16 45.867 21.333 0 0 0 0 0 0 3.2 1.067 7.467 2.133 10.667 3.2 1.067 0 1.067 0 2.133 0 11.733 3.2 23.467 4.267 36.267 4.267 74.667 0 135.467-52.267 135.467-117.333 0-61.867-54.4-112-122.667-117.333h-42.667c4.267-20.267 5.333-38.4 3.2-53.333h39.467c4.267 0 8.533 1.067 12.8 1.067 92.8 12.8 162.133 84.267 162.133 170.667 0 92.8-81.067 168.533-182.4 170.667z" />
<glyph unicode="&#xe97e;" glyph-name="d23" d="M512 650.667c-112 0-202.667-90.667-202.667-202.667s90.667-202.667 202.667-202.667c112 0 202.667 90.667 202.667 202.667s-90.667 202.667-202.667 202.667zM512 295.467c-84.267 0-152.533 68.267-152.533 152.533s68.267 152.533 152.533 152.533c84.267 0 152.533-68.267 152.533-152.533s-68.267-152.533-152.533-152.533zM266.667 432v21.333c0 8.533-7.467 16-16 16h-128c-8.533 0-16-7.467-16-16v-21.333c0-8.533 7.467-16 16-16h128c8.533 0 16 7.467 16 16zM496 693.333h21.333c8.533 0 16 7.467 16 16v128c0 8.533-7.467 16-16 16h-21.333c-8.533 0-16-7.467-16-16v-128c0-8.533 7.467-16 16-16zM327.467 285.867c-6.4 6.4-16 6.4-22.4 0l-90.667-90.667c-6.4-6.4-6.4-16 0-22.4l14.933-14.933c6.4-6.4 16-6.4 22.4 0l90.667 90.667c6.4 6.4 6.4 16 0 22.4l-14.933 14.933zM689.067 617.6c6.4-6.4 16-6.4 22.4 0l90.667 90.667c6.4 6.4 6.4 16 0 22.4l-14.933 14.933c-6.4 6.4-16 6.4-22.4 0l-90.667-90.667c-6.4-6.4-6.4-16 0-22.4l14.933-14.933zM901.333 469.333h-128c-8.533 0-16-7.467-16-16v-21.333c0-8.533 7.467-16 16-16h128c8.533 0 16 7.467 16 16v21.333c0 8.533-7.467 16-16 16zM517.333 202.667h-21.333c-8.533 0-16-7.467-16-16v-128c0-8.533 7.467-16 16-16h21.333c8.533 0 16 7.467 16 16v128c0 8.533-7.467 16-16 16zM711.467 278.4c-6.4 6.4-16 6.4-22.4 0l-14.933-14.933c-6.4-6.4-6.4-16 0-22.4l90.667-90.667c6.4-6.4 16-6.4 22.4 0l14.933 14.933c6.4 6.4 6.4 16 0 22.4l-90.667 90.667zM305.067 610.133c6.4-6.4 16-6.4 22.4 0l14.933 14.933c6.4 6.4 6.4 16 0 22.4l-90.667 90.667c-6.4 6.4-16 6.4-22.4 0l-14.933-14.933c-6.4-6.4-6.4-16 0-22.4l90.667-90.667zM278.4 525.867l8.533 20.267c3.2 8.533-1.067 17.067-8.533 21.333l-118.4 48c-8.533 3.2-17.067-1.067-21.333-8.533l-7.467-20.267c-3.2-8.533 1.067-17.067 8.533-21.333l118.4-48c8.533-3.2 17.067 0 20.267 8.533zM589.867 681.6l20.267-8.533c8.533-3.2 17.067 1.067 21.333 8.533l48 118.4c3.2 8.533-1.067 17.067-8.533 21.333l-20.267 7.467c-8.533 3.2-17.067-1.067-21.333-8.533l-48-118.4c-3.2-8.533 0-17.067 8.533-20.267zM279.467 368c-3.2 8.533-12.8 11.733-21.333 8.533l-118.4-49.067c-8.533-3.2-11.733-12.8-8.533-21.333l8.533-19.2c3.2-8.533 12.8-11.733 21.333-8.533l118.4 49.067c8.533 3.2 11.733 12.8 8.533 21.333l-8.533 19.2zM740.267 537.6c3.2-8.533 12.8-11.733 21.333-8.533l118.4 49.067c8.533 3.2 11.733 12.8 8.533 21.333l-8.533 19.2c-3.2 8.533-12.8 11.733-21.333 8.533l-118.4-49.067c-8.533-3.2-11.733-12.8-8.533-21.333l8.533-19.2zM880 320l-118.4 48c-8.533 3.2-17.067-1.067-21.333-8.533l-8.533-20.267c-3.2-8.533 1.067-17.067 8.533-21.333l118.4-48c8.533-3.2 17.067 1.067 21.333 8.533l8.533 20.267c4.267 9.6 0 18.133-8.533 21.333zM424.533 218.667l-20.267 8.533c-8.533 3.2-17.067-1.067-21.333-8.533l-48-118.4c-3.2-8.533 1.067-17.067 8.533-21.333l20.267-8.533c8.533-3.2 17.067 1.067 21.333 8.533l48 118.4c3.2 8.533-1.067 18.133-8.533 21.333zM632.533 215.467c-3.2 8.533-12.8 11.733-21.333 8.533l-19.2-8.533c-8.533-3.2-11.733-12.8-8.533-21.333l49.067-118.4c3.2-8.533 12.8-11.733 21.333-8.533l19.2 8.533c8.533 3.2 11.733 12.8 8.533 21.333l-49.067 118.4zM380.8 676.267c3.2-8.533 12.8-11.733 21.333-8.533l19.2 8.533c8.533 3.2 11.733 12.8 8.533 21.333l-49.067 118.4c-3.2 8.533-12.8 11.733-21.333 8.533l-19.2-8.533c-8.533-3.2-11.733-12.8-8.533-21.333l49.067-118.4z" />
<glyph unicode="&#xe97f;" d="M576 192c0-41.6-33.067-74.667-74.667-74.667s-74.667 33.067-74.667 74.667c0 34.133 22.4 61.867 53.333 71.467v45.867h10.667c6.4 0 10.667 2.133 10.667 5.333s-4.267 5.333-10.667 5.333h-10.667v21.333h10.667c6.4 0 10.667 2.133 10.667 5.333s-4.267 5.333-10.667 5.333h-10.667v21.333h10.667c6.4 0 10.667 2.133 10.667 5.333s-4.267 5.333-10.667 5.333h-10.667v10.667c0 18.133 3.2 32 21.333 32s21.333-13.867 21.333-32v-131.2c30.933-9.6 53.333-37.333 53.333-71.467z" />
<glyph unicode="&#xe980;" d="M565.333 302.933v422.4c0 29.867-34.133 53.333-64 53.333s-64-23.467-64-53.333v-422.4c-38.4-22.4-64-62.933-64-110.933 0-70.4 57.6-128 128-128s128 57.6 128 128c0 46.933-25.6 88.533-64 110.933zM501.333 90.667c-55.467 0-101.333 45.867-101.333 101.333 0 40.533 24.533 75.733 58.667 91.733v428.8c0 24.533 19.2 44.8 42.667 44.8s42.667-20.267 42.667-44.8v-428.8c34.133-16 58.667-51.2 58.667-91.733 0-55.467-45.867-101.333-101.333-101.333z" />
<glyph unicode="&#xe981;" glyph-name="d10" d="M397.867 597.333c58.667 0 106.667-38.4 110.933-87.467-23.467-4.267-39.467-16-33.067-43.733 9.6 6.4 19.2 10.667 30.933 13.867 0 0 0 0 0 0 2.133 1.067 4.267 1.067 7.467 2.133 0 0 1.067 0 1.067 0 7.467 2.133 16 3.2 24.533 3.2 50.133 0 89.6-34.133 89.6-77.867 0-40.533-36.267-73.6-82.133-77.867v0h-299.733c-49.067 7.467-87.467 51.2-87.467 101.333 0 55.467 44.8 99.2 100.267 101.333-6.4-20.267-4.267-38.4 19.2-48 0 13.867 4.267 29.867 10.667 44.8 0 0 0 0 0 0s0 1.067 1.067 1.067c3.2 6.4 6.4 12.8 9.6 19.2 19.2 28.8 55.467 48 97.067 48zM397.867 650.667c-54.4 0-104.533-23.467-135.467-64 0 0-1.067 0-1.067 0s-1.067 0-1.067 0c-85.333-2.133-152.533-70.4-152.533-154.667 0-71.467 49.067-132.267 118.4-149.333 6.4-3.2 13.867-5.333 22.4-5.333h299.733c4.267 0 7.467 0 11.733 1.067 70.4 8.533 122.667 64 122.667 130.133s-54.4 121.6-124.8 129.067c-18.133 66.133-83.2 113.067-160 113.067v0zM742.4 533.333h146.133c16 0 27.733-9.6 27.733-21.333s-12.8-21.333-27.733-21.333h-146.133c-16 0-27.733 9.6-27.733 21.333s12.8 21.333 27.733 21.333zM779.733 448h115.2c12.8 0 22.4-9.6 22.4-21.333s-9.6-21.333-22.4-21.333h-115.2c-12.8 0-22.4 9.6-22.4 21.333s9.6 21.333 22.4 21.333zM752 362.667h138.667c14.933 0 26.667-9.6 26.667-21.333s-11.733-21.333-26.667-21.333h-138.667c-14.933 0-26.667 9.6-26.667 21.333s11.733 21.333 26.667 21.333z" />
<glyph unicode="&#xe982;" glyph-name="d11" d="M512 106.667c-188.8 0-341.333 152.533-341.333 341.333s152.533 341.333 341.333 341.333 341.333-152.533 341.333-341.333-152.533-341.333-341.333-341.333zM710.4 654.933c-107.733 108.8-282.667 108.8-390.4 0-6.4-6.4-2.133-21.333 8.533-41.6 12.8 17.067 33.067 28.8 56.533 28.8 39.467 0 71.467-32 71.467-71.467 0-30.933-19.2-56.533-45.867-66.133 29.867-34.133 65.067-70.4 100.267-104.533 3.2 16 18.133 27.733 34.133 27.733 19.2 0 35.2-16 35.2-36.267 0-16-10.667-29.867-25.6-34.133 72.533-65.067 137.6-110.933 153.6-94.933 109.867 108.8 109.867 284.8 2.133 392.533zM689.067 444.8c-29.867 0-53.333 24.533-53.333 53.333 0 29.867 23.467 53.333 53.333 53.333s53.333-24.533 53.333-53.333c0-28.8-24.533-53.333-53.333-53.333zM528 552.533c-19.2 0-35.2 16-35.2 36.267s16 36.267 35.2 36.267 35.2-16 35.2-36.267-14.933-36.267-35.2-36.267z" />
<glyph unicode="&#xe983;" d="M674.133 330.667c42.667 0 77.867-30.933 81.067-70.4-17.067-3.2-28.8-12.8-24.533-35.2 6.4 4.267 13.867 8.533 22.4 11.733 0 0 0 0 0 0 2.133 1.067 3.2 1.067 5.333 2.133 0 0 1.067 0 1.067 0 5.333 1.067 11.733 2.133 18.133 2.133 36.267 0 65.067-27.733 65.067-61.867 0-32-26.667-58.667-59.733-61.867v0h-217.6v1.067c-36.267 6.4-64 39.467-64 80 0 43.733 33.067 80 73.6 81.067-4.267-16-3.2-30.933 13.867-38.4 0 10.667 3.2 23.467 7.467 35.2 0 0 0 0 0 0s0 1.067 0 1.067c2.133 5.333 4.267 10.667 7.467 14.933 13.867 23.467 40.533 38.4 70.4 38.4zM674.133 373.333c-40.533 0-78.933-19.2-102.4-51.2-64-2.133-113.067-56.533-113.067-123.733 0-56.533 36.267-105.6 87.467-119.467 5.333-3.2 11.733-4.267 18.133-4.267h218.667c3.2 0 6.4 0 9.6 1.067 53.333 7.467 92.8 51.2 92.8 103.467s-39.467 94.933-90.667 103.467c-13.867 52.267-61.867 90.667-120.533 90.667v0z" />
<glyph unicode="&#xe984;" d="M676.267 542.933c0-27.099-21.968-49.067-49.067-49.067s-49.067 21.968-49.067 49.067c0 27.099 21.968 49.067 49.067 49.067s49.067-21.968 49.067-49.067z" />
<glyph unicode="&#xe985;" d="M416 198.4c0 82.133 57.6 151.467 134.4 164.267 2.133 2.133 4.267 4.267 6.4 6.4-16 12.8-33.067 27.733-51.2 43.733 13.867 4.267 23.467 17.067 23.467 30.933 0 18.133-14.933 33.067-33.067 33.067-16 0-28.8-10.667-32-25.6-32 30.933-64 65.067-91.733 96 24.533 9.6 41.6 33.067 41.6 61.867 0 36.267-29.867 66.133-66.133 66.133-21.333 0-40.533-10.667-52.267-26.667-10.667 19.2-13.867 33.067-8.533 38.4 99.2 100.267 260.267 100.267 359.467 0 73.6-73.6 92.8-182.4 57.6-274.133 20.267-3.2 39.467-10.667 56.533-21.333 11.733 32 18.133 67.2 18.133 103.467 0 174.933-140.8 315.733-314.667 315.733s-314.667-140.8-314.667-314.667c0-157.867 116.267-288 266.667-311.467 0 5.333 0 9.6 0 13.867z" />
<glyph unicode="&#xe986;" d="M512 625.067c0-18.262-14.804-33.067-33.067-33.067s-33.067 14.804-33.067 33.067c0 18.262 14.804 33.067 33.067 33.067s33.067-14.804 33.067-33.067z" />
<glyph unicode="&#xe987;" d="M706.133 330.667c42.667 0 77.867-28.8 81.067-66.133-17.067-3.2-28.8-11.733-24.533-33.067 6.4 4.267 13.867 8.533 22.4 10.667 0 0 0 0 0 0 2.133 1.067 3.2 1.067 5.333 2.133 0 0 1.067 0 1.067 0 5.333 1.067 11.733 2.133 18.133 2.133 36.267 0 65.067-26.667 65.067-58.667 0-30.933-26.667-56.533-59.733-58.667v0h-217.6c-36.267 5.333-64 38.4-64 76.8 0 41.6 33.067 75.733 73.6 76.8-4.267-14.933-3.2-29.867 13.867-36.267 0 10.667 3.2 22.4 7.467 34.133 0 0 0 0 0 0s0 1.067 0 1.067c2.133 5.333 4.267 9.6 7.467 13.867 13.867 20.267 40.533 35.2 70.4 35.2zM706.133 373.333c-40.533 0-77.867-18.133-101.333-49.067-64-2.133-114.133-54.4-114.133-119.467 0-55.467 36.267-102.4 88.533-115.2 5.333-2.133 11.733-4.267 18.133-4.267h218.667c3.2 0 6.4 0 9.6 1.067 53.333 7.467 92.8 49.067 92.8 100.267 0 50.133-39.467 92.8-91.733 100.267-14.933 50.133-62.933 86.4-120.533 86.4v0z" />
<glyph unicode="&#xe988;" d="M262.4 330.667c27.733 0 51.2-20.267 53.333-45.867-11.733-2.133-19.2-8.533-16-22.4 4.267 3.2 9.6 5.333 14.933 7.467 0 0 0 0 0 0 1.067 0 2.133 1.067 3.2 1.067 0 0 0 0 1.067 0 3.2 1.067 7.467 1.067 11.733 1.067 23.467 0 42.667-18.133 42.667-40.533 0-21.333-17.067-38.4-39.467-40.533v0h-142.933c-23.467 4.267-41.6 26.667-41.6 52.267 0 28.8 21.333 52.267 48 52.267-3.2-10.667-2.133-20.267 9.6-24.533 0 7.467 2.133 14.933 5.333 23.467 0 0 0 0 0 0s0 0 0 1.067c1.067 3.2 3.2 6.4 4.267 9.6 9.6 16 26.667 25.6 45.867 25.6zM262.4 373.333c-28.8 0-56.533-12.8-74.667-34.133-45.867-5.333-81.067-45.867-81.067-94.933 0-43.733 27.733-80 67.2-91.733 5.333-2.133 10.667-3.2 17.067-3.2h142.933c3.2 0 6.4 0 9.6 1.067 41.6 6.4 72.533 40.533 72.533 82.133 0 38.4-26.667 70.4-62.933 80-12.8 35.2-49.067 60.8-90.667 60.8v0z" />
<glyph unicode="&#xe989;" d="M262.4 416c51.2 0 97.067-27.733 121.6-69.333 37.333-17.067 64-50.133 72.533-89.6 17.067 51.2 57.6 90.667 109.867 105.6-19.2 13.867-39.467 32-60.8 51.2 13.867 4.267 23.467 17.067 23.467 30.933 0 18.133-14.933 33.067-33.067 33.067-16 0-28.8-10.667-32-25.6-32 30.933-64 65.067-91.733 96 24.533 9.6 41.6 33.067 41.6 61.867 0 36.267-29.867 66.133-66.133 66.133-21.333 0-40.533-10.667-52.267-26.667-10.667 19.2-13.867 33.067-8.533 38.4 99.2 100.267 260.267 100.267 359.467 0 72.533-73.6 91.733-180.267 57.6-270.933 0 0 1.067 0 1.067 0 20.267 0 40.533-3.2 59.733-10.667 8.533 28.8 12.8 58.667 12.8 90.667 1.067 172.8-139.733 313.6-313.6 313.6s-314.667-140.8-314.667-314.667c0-40.533 7.467-78.933 21.333-114.133 25.6 21.333 57.6 34.133 91.733 34.133z" />
<glyph unicode="&#xe98a;" d="M676.267 542.933c0-27.099-21.968-49.067-49.067-49.067s-49.067 21.968-49.067 49.067c0 27.099 21.968 49.067 49.067 49.067s49.067-21.968 49.067-49.067z" />
<glyph unicode="&#xe98b;" d="M512 625.067c0-18.262-14.804-33.067-33.067-33.067s-33.067 14.804-33.067 33.067c0 18.262 14.804 33.067 33.067 33.067s33.067-14.804 33.067-33.067z" />
<glyph unicode="&#xe98c;" d="M753.067 672c20.267 0 36.267-13.867 38.4-32-8.533-1.067-13.867-5.333-11.733-16 3.2 2.133 6.4 4.267 10.667 5.333 0 0 0 0 0 0 1.067 0 2.133 0 2.133 1.067 0 0 0 0 0 0 2.133 1.067 5.333 1.067 8.533 1.067 17.067 0 30.933-12.8 30.933-27.733s-12.8-26.667-27.733-27.733h-102.4c-17.067 3.2-29.867 18.133-29.867 36.267 0 20.267 14.933 36.267 34.133 36.267-2.133-7.467-1.067-13.867 6.4-17.067 0 5.333 1.067 10.667 3.2 16v0c0 0 0 0 0 1.067 1.067 2.133 2.133 4.267 3.2 6.4 7.467 10.667 20.267 17.067 34.133 17.067zM753.067 714.667c-22.4 0-43.733-8.533-58.667-24.533-37.333-6.4-65.067-38.4-65.067-77.867 0-38.4 27.733-72.533 65.067-78.933 2.133 0 4.267-1.067 6.4-1.067h102.4c1.067 0 2.133 0 3.2 0 37.333 3.2 67.2 34.133 67.2 70.4 0 30.933-20.267 56.533-48 66.133-11.733 27.733-40.533 45.867-72.533 45.867v0z" />
<glyph unicode="&#xe98d;" d="M262.4 330.667c27.733 0 51.2-20.267 53.333-45.867-11.733-2.133-19.2-8.533-16-22.4 4.267 3.2 9.6 5.333 14.933 7.467 0 0 0 0 0 0 1.067 0 2.133 1.067 3.2 1.067 0 0 0 0 1.067 0 3.2 1.067 7.467 1.067 11.733 1.067 23.467 0 42.667-18.133 42.667-40.533 0-21.333-17.067-38.4-39.467-40.533h-142.933c-23.467 4.267-41.6 26.667-41.6 52.267 0 28.8 21.333 52.267 48 52.267-3.2-10.667-2.133-20.267 9.6-24.533 0 7.467 2.133 16 5.333 23.467 0 0 0 0 0 0s0 1.067 0 1.067c1.067 3.2 3.2 6.4 4.267 9.6 9.6 16 26.667 25.6 45.867 25.6zM262.4 373.333c-28.8 0-56.533-12.8-74.667-34.133-45.867-5.333-81.067-45.867-81.067-94.933 0-46.933 33.067-87.467 76.8-94.933 2.133 0 4.267-1.067 7.467-1.067h142.933c1.067 0 2.133 0 3.2 0 43.733 3.2 77.867 40.533 77.867 83.2 0 38.4-26.667 70.4-62.933 80-11.733 36.267-48 61.867-89.6 61.867v0z" />
<glyph unicode="&#xe98e;" d="M706.133 330.667c42.667 0 77.867-28.8 81.067-66.133-17.067-3.2-28.8-11.733-24.533-33.067 6.4 4.267 13.867 8.533 22.4 10.667 0 0 0 0 0 0 2.133 1.067 3.2 1.067 5.333 2.133 0 0 1.067 0 1.067 0 5.333 1.067 11.733 2.133 18.133 2.133 36.267 0 65.067-26.667 65.067-58.667 0-30.933-26.667-56.533-59.733-58.667h-217.6c-36.267 5.333-64 38.4-64 76.8 0 41.6 33.067 75.733 73.6 76.8-4.267-14.933-3.2-29.867 13.867-36.267 0 10.667 3.2 22.4 7.467 34.133 0 0 0 0 0 0s0 1.067 0 1.067c2.133 5.333 4.267 9.6 7.467 13.867 13.867 20.267 40.533 35.2 70.4 35.2zM706.133 373.333c-40.533 0-77.867-18.133-101.333-49.067-64-2.133-114.133-54.4-114.133-119.467 0-58.667 42.667-109.867 99.2-119.467 2.133 0 4.267-1.067 6.4-1.067h218.667c1.067 0 2.133 0 3.2 0 55.467 4.267 99.2 49.067 99.2 101.333 0 50.133-39.467 92.8-91.733 100.267-13.867 51.2-61.867 87.467-119.467 87.467v0z" />
<glyph unicode="&#xe98f;" d="M721.067 490.667c-1.067-25.6-6.4-50.133-16-74.667 0 0 1.067 0 1.067 0 20.267 0 40.533-3.2 59.733-10.667 8.533 26.667 12.8 55.467 12.8 85.333h-57.6z" />
<glyph unicode="&#xe990;" d="M627.2 492.8c10.667 0 20.267 3.2 28.8 9.6-29.867 14.933-53.333 42.667-62.933 75.733-8.533-8.533-13.867-21.333-13.867-35.2-2.133-27.733 20.267-50.133 48-50.133z" />
<glyph unicode="&#xe991;" d="M512 625.067c0-18.262-14.804-33.067-33.067-33.067s-33.067 14.804-33.067 33.067c0 18.262 14.804 33.067 33.067 33.067s33.067-14.804 33.067-33.067z" />
<glyph unicode="&#xe992;" d="M262.4 416c51.2 0 97.067-27.733 121.6-69.333 37.333-17.067 64-50.133 72.533-89.6 17.067 51.2 57.6 90.667 109.867 105.6-19.2 13.867-39.467 32-60.8 51.2 13.867 4.267 23.467 17.067 23.467 30.933 0 18.133-14.933 33.067-33.067 33.067-16 0-28.8-10.667-32-25.6-32 30.933-64 65.067-91.733 96 24.533 9.6 41.6 33.067 41.6 61.867 0 36.267-29.867 66.133-66.133 66.133-21.333 0-40.533-10.667-52.267-26.667-10.667 19.2-13.867 33.067-8.533 38.4 92.8 93.867 241.067 99.2 340.267 17.067 12.8 11.733 28.8 20.267 45.867 25.6 0 0 0 0 1.067 0-55.467 49.067-129.067 80-210.133 80-173.867 0-314.667-140.8-314.667-314.667 0-40.533 7.467-78.933 21.333-114.133 25.6 21.333 57.6 34.133 91.733 34.133z" />
<glyph unicode="&#xe993;" d="M208 320h629.333c14.933 0 26.667-9.6 26.667-21.333s-11.733-21.333-26.667-21.333h-629.333c-14.933 0-26.667 9.6-26.667 21.333s11.733 21.333 26.667 21.333zM208 234.667h629.333c14.933 0 26.667-9.6 26.667-21.333s-11.733-21.333-26.667-21.333h-629.333c-14.933 0-26.667 9.6-26.667 21.333s11.733 21.333 26.667 21.333zM208 149.333h629.333c14.933 0 26.667-9.6 26.667-21.333s-11.733-21.333-26.667-21.333h-629.333c-14.933 0-26.667 9.6-26.667 21.333s11.733 21.333 26.667 21.333z" />
<glyph unicode="&#xe994;" d="M729.6 542.933c0-27.099-21.968-49.067-49.067-49.067s-49.067 21.968-49.067 49.067c0 27.099 21.968 49.067 49.067 49.067s49.067-21.968 49.067-49.067z" />
<glyph unicode="&#xe995;" d="M617.6 362.667c-18.133 13.867-38.4 30.933-59.733 50.133 13.867 4.267 23.467 17.067 23.467 30.933 0 18.133-14.933 33.067-33.067 33.067-16 0-28.8-10.667-32-25.6-32 30.933-64 65.067-91.733 96 24.533 9.6 41.6 33.067 41.6 61.867 0 36.267-29.867 66.133-66.133 66.133-21.333 0-40.533-10.667-52.267-26.667-10.667 19.2-13.867 33.067-8.533 38.4 99.2 100.267 260.267 100.267 359.467 0 87.467-88.533 98.133-225.067 30.933-324.267h71.467c20.267 40.533 30.933 85.333 30.933 133.333 0 173.867-140.8 314.667-314.667 314.667s-314.667-140.8-314.667-314.667c0-48 10.667-92.8 29.867-133.333h385.067z" />
<glyph unicode="&#xe996;" d="M565.333 625.067c0-18.262-14.804-33.067-33.067-33.067s-33.067 14.804-33.067 33.067c0 18.262 14.804 33.067 33.067 33.067s33.067-14.804 33.067-33.067z" />
<glyph unicode="&#xe997;" d="M599.467 405.333c42.667 0 77.867-28.8 81.067-66.133-17.067-3.2-28.8-11.733-24.533-33.067 6.4 4.267 13.867 8.533 22.4 10.667 0 0 0 0 0 0 2.133 1.067 3.2 1.067 5.333 2.133 0 0 1.067 0 1.067 0 5.333 1.067 11.733 2.133 18.133 2.133 36.267 0 65.067-26.667 65.067-58.667 0-30.933-26.667-56.533-59.733-58.667v0h-217.6c-36.267 5.333-64 38.4-64 76.8 0 41.6 33.067 75.733 73.6 76.8-4.267-14.933-3.2-29.867 13.867-36.267 0 10.667 3.2 22.4 7.467 34.133 0 0 0 0 0 0s0 1.067 0 1.067c2.133 5.333 4.267 9.6 7.467 13.867 13.867 20.267 40.533 35.2 70.4 35.2zM599.467 448c-40.533 0-77.867-18.133-101.333-49.067-64-2.133-114.133-54.4-114.133-119.467 0-55.467 36.267-102.4 88.533-116.267 5.333-2.133 11.733-4.267 18.133-4.267h218.667c3.2 0 6.4 0 9.6 1.067 53.333 7.467 92.8 49.067 92.8 100.267 0 50.133-39.467 92.8-91.733 100.267-14.933 51.2-62.933 87.467-120.533 87.467v0z" />
<glyph unicode="&#xe998;" d="M848 499.2c-12.8 26.667-40.533 44.8-73.6 44.8-22.4 0-43.733-8.533-58.667-24.533-25.6-4.267-46.933-21.333-57.6-44.8 13.867-5.333 26.667-11.733 38.4-20.267 5.333 12.8 17.067 22.4 32 23.467-2.133-7.467-1.067-13.867 6.4-17.067 0 5.333 1.067 10.667 3.2 16v0c0 0 0 0 0 1.067 1.067 2.133 2.133 4.267 3.2 6.4 6.4 10.667 19.2 17.067 33.067 17.067 20.267 0 36.267-13.867 38.4-32-8.533-1.067-13.867-5.333-11.733-16 3.2 2.133 6.4 4.267 10.667 5.333 0 0 0 0 0 0 1.067 0 2.133 1.067 2.133 1.067s0 0 0 0c2.133 1.067 5.333 1.067 8.533 1.067 17.067 0 30.933-12.8 30.933-27.733s-12.8-26.667-27.733-27.733v0h-84.267c2.133-4.267 4.267-7.467 6.4-11.733 20.267-6.4 38.4-17.067 54.4-30.933h23.467c3.2 0 5.333 0 8.533 1.067 36.267 5.333 61.867 34.133 61.867 69.333 0 30.933-20.267 56.533-48 66.133z" />
<glyph unicode="&#xe999;" d="M341.333 279.467c0 6.4 0 12.8 1.067 19.2h-130.133c-23.467 4.267-41.6 26.667-41.6 53.333 0 28.8 21.333 52.267 48 52.267-3.2-10.667-2.133-20.267 9.6-24.533 0 7.467 2.133 16 5.333 23.467 0 0 0 0 0 0s0 1.067 0 1.067c1.067 3.2 3.2 6.4 4.267 9.6 9.6 14.933 26.667 24.533 45.867 24.533 27.733 0 51.2-20.267 53.333-45.867-11.733-2.133-19.2-8.533-16-22.4 4.267 3.2 9.6 5.333 14.933 7.467 0 0 0 0 0 0 1.067 0 2.133 1.067 3.2 1.067 0 0 0 0 1.067 0 3.2 1.067 7.467 1.067 11.733 1.067 7.467 0 13.867-2.133 19.2-4.267 8.533 11.733 18.133 22.4 29.867 32-8.533 5.333-17.067 9.6-26.667 12.8-12.8 36.267-49.067 60.8-90.667 60.8-28.8 0-56.533-12.8-74.667-34.133-45.867-5.333-81.067-45.867-81.067-94.933 0-46.933 33.067-87.467 76.8-94.933 2.133 0 4.267-1.067 7.467-1.067 1.067 0 2.133 0 3.2 0h128c-1.067 7.467-2.133 16-2.133 23.467z" />
<glyph unicode="&#xe99a;" d="M579.2 489.6c6.4 1.067 13.867 1.067 20.267 1.067s11.733 0 18.133-1.067l1.067 3.2c5.333 12.8 12.8 23.467 22.4 33.067-4.267 1.067-9.6 2.133-14.933 2.133-22.4 0-42.667-16-46.933-38.4z" />
<glyph unicode="&#xe99b;" d="M512 561.067c0-18.262-14.804-33.067-33.067-33.067s-33.067 14.804-33.067 33.067c0 18.262 14.804 33.067 33.067 33.067s33.067-14.804 33.067-33.067z" />
<glyph unicode="&#xe99c;" d="M188.8 485.333c25.6 23.467 59.733 37.333 96 37.333s69.333-13.867 93.867-36.267c21.333 10.667 35.2 33.067 35.2 58.667 0 36.267-29.867 66.133-66.133 66.133-21.333 0-40.533-10.667-52.267-26.667-10.667 19.2-13.867 33.067-8.533 38.4 99.2 100.267 260.267 100.267 359.467 0 19.2-19.2 35.2-41.6 46.933-65.067 0 0 1.067 0 1.067 0 13.867 10.667 28.8 19.2 45.867 23.467-53.333 99.2-156.8 165.333-276.267 165.333-161.067 0-293.333-120.533-312.533-276.267 11.733 6.4 23.467 11.733 37.333 14.933z" />
<glyph unicode="&#xe99d;" d="M825.6 297.6c-13.867 50.133-61.867 86.4-120.533 86.4-40.533 0-77.867-18.133-101.333-49.067-64-2.133-114.133-54.4-114.133-119.467 0-35.2 14.933-68.267 40.533-89.6 3.2 10.667 10.667 23.467 22.4 38.4-11.733 13.867-19.2 32-19.2 52.267 0 41.6 33.067 75.733 73.6 76.8-4.267-14.933-3.2-29.867 13.867-36.267 0 10.667 3.2 22.4 7.467 34.133 0 0 0 0 0 0s0 1.067 0 1.067c2.133 5.333 4.267 9.6 7.467 13.867 13.867 21.333 40.533 36.267 70.4 36.267 42.667 0 77.867-28.8 81.067-66.133-17.067-3.2-28.8-11.733-24.533-33.067 6.4 4.267 13.867 8.533 22.4 10.667 0 0 0 0 0 0 2.133 1.067 3.2 1.067 5.333 2.133 0 0 1.067 0 1.067 0 5.333 1.067 11.733 2.133 18.133 2.133 36.267 0 65.067-26.667 65.067-58.667 0-20.267-11.733-38.4-29.867-49.067 5.333-19.2 7.467-33.067 8.533-43.733 38.4 16 64 51.2 64 92.8 0 49.067-39.467 90.667-91.733 98.133z" />
<glyph unicode="&#xe99e;" d="M571.733 114.133c-4.267-17.067 5.333-34.133 21.333-38.4s32 5.333 36.267 22.4c4.267 17.067-12.8 69.333-12.8 69.333s-40.533-36.267-44.8-53.333z" />
<glyph unicode="&#xe99f;" d="M674.133 148.267c-3.2-13.867 4.267-28.8 18.133-32 13.867-4.267 27.733 4.267 32 18.133 3.2 13.867-11.733 57.6-11.733 57.6s-35.2-29.867-38.4-43.733z" />
<glyph unicode="&#xe9a0;" d="M759.467 109.867c-3.2-13.867 4.267-28.8 18.133-32 13.867-4.267 27.733 4.267 32 18.133s-11.733 57.6-11.733 57.6-34.133-29.867-38.4-43.733z" />
<glyph unicode="&#xe9a1;" d="M262.4 330.667c27.733 0 51.2-20.267 53.333-45.867-11.733-2.133-19.2-8.533-16-22.4 4.267 3.2 9.6 5.333 14.933 7.467 0 0 0 0 0 0 1.067 0 2.133 1.067 3.2 1.067 0 0 0 0 1.067 0 3.2 1.067 7.467 1.067 11.733 1.067 23.467 0 42.667-18.133 42.667-40.533 0-21.333-17.067-38.4-39.467-40.533v0h-142.933c-23.467 4.267-41.6 26.667-41.6 52.267 0 28.8 21.333 52.267 48 52.267-3.2-10.667-2.133-20.267 9.6-24.533 0 7.467 2.133 14.933 5.333 23.467 0 0 0 0 0 0s0 0 0 1.067c1.067 3.2 3.2 6.4 4.267 9.6 9.6 16 26.667 25.6 45.867 25.6zM262.4 373.333c-28.8 0-56.533-12.8-74.667-34.133-45.867-5.333-81.067-45.867-81.067-94.933 0-43.733 27.733-80 67.2-91.733 5.333-2.133 10.667-3.2 17.067-3.2h142.933c3.2 0 6.4 0 9.6 1.067 41.6 6.4 72.533 40.533 72.533 82.133 0 38.4-26.667 70.4-62.933 80-12.8 35.2-49.067 60.8-90.667 60.8v0z" />
<glyph unicode="&#xe9a2;" d="M262.4 416c51.2 0 97.067-27.733 121.6-69.333 35.2-16 60.8-46.933 70.4-84.267 14.933 50.133 52.267 89.6 101.333 106.667-16 12.8-33.067 27.733-51.2 43.733 13.867 4.267 23.467 17.067 23.467 30.933 0 18.133-14.933 33.067-33.067 33.067-16 0-28.8-10.667-32-25.6-32 30.933-64 65.067-91.733 96 24.533 9.6 41.6 33.067 41.6 61.867 0 36.267-29.867 66.133-66.133 66.133-21.333 0-40.533-10.667-52.267-26.667-10.667 19.2-13.867 33.067-8.533 38.4 99.2 100.267 260.267 100.267 359.467 0 70.4-70.4 90.667-171.733 61.867-260.267 21.333 0 40.533-4.267 59.733-11.733 6.4 25.6 10.667 53.333 10.667 81.067 1.067 173.867-139.733 314.667-313.6 314.667s-314.667-140.8-314.667-314.667c0-40.533 7.467-78.933 21.333-114.133 25.6 21.333 57.6 34.133 91.733 34.133z" />
<glyph unicode="&#xe9a3;" d="M512 625.067c0-18.262-14.804-33.067-33.067-33.067s-33.067 14.804-33.067 33.067c0 18.262 14.804 33.067 33.067 33.067s33.067-14.804 33.067-33.067z" />
<glyph unicode="&#xe9a4;" d="M676.267 542.933c0-27.099-21.968-49.067-49.067-49.067s-49.067 21.968-49.067 49.067c0 27.099 21.968 49.067 49.067 49.067s49.067-21.968 49.067-49.067z" />
<glyph unicode="&#xe9a5;" d="M491.733 106.667c-5.333-22.4 6.4-45.867 26.667-51.2s40.533 7.467 45.867 29.867-17.067 91.733-17.067 91.733-50.133-48-55.467-70.4z" />
<glyph unicode="&#xe9a6;" d="M621.867 150.4c-4.267-18.133 5.333-37.333 23.467-42.667s35.2 6.4 40.533 24.533c4.267 18.133-14.933 75.733-14.933 75.733s-44.8-39.467-49.067-57.6z" />
<glyph unicode="&#xe9a7;" d="M729.6 99.2c-4.267-18.133 5.333-37.333 23.467-42.667s35.2 6.4 40.533 24.533-14.933 75.733-14.933 75.733-43.733-39.467-49.067-57.6z" />
<glyph unicode="&#xe9a8;" d="M797.867 369.067c-12.8 70.4-74.667 121.6-149.333 121.6-52.267 0-101.333-26.667-129.067-69.333-1.067 0-3.2 0-4.267 0 0 0-1.067 0-1.067 0-78.933-2.133-140.8-69.333-140.8-151.467 0-58.667 32-112 80-137.6 5.333 11.733 14.933 23.467 24.533 35.2-36.267 17.067-61.867 56.533-61.867 102.4 0 59.733 43.733 107.733 98.133 108.8-6.4-21.333-4.267-41.6 19.2-51.2 0 14.933 4.267 32 10.667 48 0 0 0 0 0 0 0 1.067 0 1.067 1.067 2.133 3.2 7.467 6.4 13.867 9.6 20.267 19.2 30.933 54.4 51.2 93.867 51.2 57.6 0 104.533-41.6 108.8-94.933-23.467-4.267-38.4-17.067-32-46.933 8.533 6.4 19.2 11.733 29.867 14.933 0 0 0 0 0 0 2.133 1.067 4.267 2.133 7.467 2.133 0 0 1.067 0 1.067 0 7.467 2.133 16 3.2 23.467 3.2 49.067 0 88.533-37.333 88.533-83.2 0-35.2-23.467-66.133-56.533-77.867 4.267-12.8 8.533-26.667 11.733-41.6 51.2 17.067 88.533 65.067 88.533 119.467-2.133 65.067-54.4 119.467-121.6 124.8z" />
</font>
</defs>
</svg>
